За последнюю неделю опубликовано 31 новых материалов.
Инструкция новичку Путеводитель по форуму Прокси для Telegram Показать подсказки , это бомба!

Скачать Механик / The Mechanic (2011) BDRip-AVC | D | RUS Transfer | Open Matte бесплатно через торрент

  • Поучаствуй (в качестве покупателя) в любых пяти совместных покупках (кроме завершённых и "Моментальных") и получи группу "Новичок" навсегда -> ссылка на раздел
  • Получай до 480 рублей за каждого приглашенного пользователя!
    представляем Вам очередное расширение партнерской программы, подробности описаны тут -> ссылка
  • 90% материалов доступно к скачиванию после простой регистрации!
    Если же ты хочешь скачивать материалы без требования оставлять отзывы то получи группу "Новичок", 10 способов повышения описаны тут -> ссылка
  • К сожалению количество битых ссылок растет и мы уже не можем их оперативно восстанавливать поэтому просим помощи у каждого нашего пользователя.
    С сегодняшнего дня, за каждую восстановленную ссылку мы заплатим Вам.
    Подробнее тут -> ссылка
  • Перенесем твои заслуги с другого ресурса!
    Мы понимаем как сложно прокачивать аккаунты на форумах, вроде раскачал аккаунт, а тут появляется ресурс в 100 раз круче но тоже с системой прокачки и снова качать аккаунт...
    Предлагаем вам перенести Ваши заслуги на другом подобном ресурсе к нам.
    Подробности описаны тут -> ссылка
  • Вы можете получать по 2.5% с каждой покупки и продажи на маркете! Подробности в теме Партнёрская программа
Если Вы не хотите скачивать, Вы всегда можетепосмотретьонлайн, просто нажмите кнопку ниже :

Открыть плеер

Torrent_Bot

Торрент-Бот
Бот форума
4 Окт 2016
93
155
20
Информация о фильме
Название: Механик
Оригинальное название: The Mechanic
Год выхода: 2011
Жанр: боевик, триллер, криминал
Режиссер: Саймон Уэст
В ролях: Джейсон Стэйтем, Бен Фостер, Тони Голдуин, Дональд Сазерленд, Джефф Чейз, Мини Анден, Джеймс Логан, Эдди Дж. Фернандез, Джошуа Бриджуотер

О фильме:
Артур Бишоп - профессиональный киллер, лучше никого нет, его прозвище "Механик". Все его преступления выглядят как несчастный случай. Артур всегда работает в одиночку, но в этот раз ему приходится обучить мастерству молодого парня Стива. Теперь они вместе решают все проблемы...



Страна: США
Студия: Millennium Films, Nu Image Entertainment GmbH
Продолжительность: 01:32:13
Перевод: Дублированный
Субтитры: Нет

Файл
Формат: MKV
Качество: BDRip-AVC
Видео: High@L4.1, 1024x576, 24 fps,`~3864 Кbps
Аудио: AC3, 6ch, 640 kbps

***Релиз от:-=DoMiNo=-
***На исходнике присутствует плавающий *кроп* и иногда *артефакты*
***Рип делался по заказу=))

M/I
General
Unique ID : 213969847929329529270657427729152766747 (0xA0F917FED72CFAF2A0F344027ABC731B)
Complete name : G:Видео_1Механик_(2011)_BDRIP-AVC_[-=DoMiNo=-].mkv
Format : Matroska
Format version : Version 4
File size : 2.90 GiB
Duration : 1 h 32 min
Overall bit rate : 4 499 kb/s
Movie name : Механик
Deion : Артур Бишоп — «Механик», высокопрофессиональный безукоризненный киллер, который всегда работает по правилам — «чисто» и без следов. Такая работа требует полного самообладания и беспристрастности, и в своём деле ему нет равных. Бишоп всегда работал один, но ему пришлось стать наставником молодого и отчаянного Стива. Методичный профессионал и импульсивный ученик теперь на пару «устраняют проблемы», но рано или поздно они сойдутся в смертельной схватке…
Attachments : poster.jpg
ACTORS : Jason Statham, Ben Foster, Donald Sutherland, Mini Anden, Tony Goldwyn, Christa Campbell, Katarzyna Wolejnio, Jeff Chase, Eddie J. Fernandez, John McConnell, Lara Grice, Ardy Brent Carlson, James Logan, Joshua Bridgewater, Joel Davis, Mark Nutter, David Dahlgren
COUNTRY : United States
DATE : 2011-01-13
DIRECTOR : Simon West
GENRE : боевик, триллер, криминал
HD_VIDEO : 1
ITUNEXTC : mpaa|R|400|
Language : und
MEDIA_TYPE : 9
ORIGINAL_TITLE : The Mechanic
PRODUCER : René Besson, William Chartoff, David Winkler
PUBLISHER : Scared Productions, CBS Films, Chartoff-Winkler Productions, Millennium Films, Nu Image
RATING : 6.76
WRITER : Karl Gajdusek, Richard Wenk

Video
ID : 1
Format : AVC
Format/Info : Advanced Video Codec
Format profile : High@L4.1
Format settings : CABAC / 12 Ref Frames
Format settings, CABAC : Yes
Format settings, ReFrames : 12 frames
Codec ID : V_MPEG4/ISO/AVC
Duration : 1 h 32 min
Bit rate : 3 864 kb/s
Width : 1 024 pixels
Height : 576 pixels
Display aspect ratio : 16:9
Frame rate mode : Constant
Frame rate : 24.000 FPS
Color space : YUV
Chroma subsampling : 4:2:0
Bit depth : 8 bits
Scan type : Progressive
Bits/(Pixel*Frame) : 0.273
Stream size : 2.43 GiB (84%)
Title : RIP_BY_-=DoMiNo=-
Writing library : x264 core 155 r2901M 7d0ff22
Encoding settings : cabac=1 / ref=12 / deblock=1:-3:-3 / analyse=0x3:0x133 / me=umh / subme=11 / psy=1 / psy_rd=1.05:0.20 / mixed_ref=1 / me_range=32 / chroma_me=1 / trellis=2 / 8x8dct=1 / cqm=0 / deadzone=21,11 / fast_pskip=0 / chroma_qp_offset=-3 / threads=6 / lookahead_threads=1 / sliced_threads=0 / nr=0 / decimate=1 / interlaced=0 / bluray_compat=0 / constrained_intra=0 / bframes=12 / b_pyramid=2 / b_adapt=2 / b_bias=0 / direct=3 / weightb=1 / open_gop=0 / weightp=2 / keyint=240 / keyint_min=24 / scenecut=40 / intra_refresh=0 / rc=2pass / mbtree=0 / bitrate=3864 / ratetol=1.0 / qcomp=0.70 / qpmin=0 / qpmax=69 / qpstep=4 / cplxblur=20.0 / qblur=0.5 / ip_ratio=1.40 / pb_ratio=1.30 / aq=3:0.85
Language : English
Default : Yes
Forced : No
Color range : Limited
Color primaries : BT.709
Transfer characteristics : BT.709
Matrix coefficients : BT.709

Audio
ID : 2
Format : AC-3
Format/Info : Audio Coding 3
Commercial name : Dolby Digital
Codec ID : A_AC3
Duration : 1 h 32 min
Bit rate mode : Constant
Bit rate : 640 kb/s
Channel(s) : 6 channels
Channel layout : L R C LFE Ls Rs
Sampling rate : 48.0 kHz
Frame rate : 31.250 FPS (1536 SPF)
Bit depth : 16 bits
Compression mode : Lossy
Stream size : 422 MiB (14%)
Title : DUB
Language : Russian
Service kind : Complete Main
Default : Yes
Forced : No

Menu
00:00:00.000 : :Глава 1
00:08:07.625 : :Глава 2
00:16:30.750 : :Глава 3
00:25:06.125 : :Глава 4
00:33:00.917 : :Глава 5
00:41:23.125 : :Глава 6
00:49:38.917 : :Глава 7
00:57:47.167 : :Глава 8
01:06:09.667 : :Глава 9
01:13:58.250 : :Глава 10
01:22:47.250 : :Глава 11
01:26:00.167 : :Глава 12
Скриншоты
Скриншоты
 

Вложения

  • 18,7 KB Просмотры: 1
    Личеров 0
    Сидеров 0
    Файлов 1
    Объем 2,9 GB

Привет!

Мы группа людей которые решили помочь другим в решении их проблем, а так же пользователям с поиском самых свежих и качественных инфопродуктов. За 4 с небольшим месяца мы создали этот форум на который заходят ежедневно тысячи человек и посещаемость постоянно растёт. Мы создали панель лицензирования для защиты PHP скриптов от воровства и SEO панель для мониторинга наших сайтов и выбора верной стратегии их развития. Мы надеемся что то что мы создали пригодится Вам и возможно Вы поможете нам развиваться и совершенствоваться вместе с Вами.

Статистика форума

Темы
406.544
Сообщения
464.665
Пользователи
83.288
Новый пользователь
ereset

Приложения форума для iOS и Android


У ркн там нет власти ;)
Приватные разговоры
Помощь Пользователи
    Вы не присоединились ни к одной комнате.