За последнюю неделю опубликовано 160 новых материалов.
Инструкция новичку Путеводитель по форуму Прокси для Telegram Показать подсказки , это бомба!

Скачать Метка дракона / Seikoku no Dragonar [S01] (2014) BDRip от Deadmauvlad | L2 | Без Цензуры бесплатно через торрент

  • Поучаствуй (в качестве покупателя) в любых пяти совместных покупках (кроме завершённых и "Моментальных") и получи группу "Новичок" навсегда -> ссылка на раздел
  • Получай до 480 рублей за каждого приглашенного пользователя!
    представляем Вам очередное расширение партнерской программы, подробности описаны тут -> ссылка
  • 90% материалов доступно к скачиванию после простой регистрации!
    Если же ты хочешь скачивать материалы без требования оставлять отзывы то получи группу "Новичок", 10 способов повышения описаны тут -> ссылка
  • К сожалению количество битых ссылок растет и мы уже не можем их оперативно восстанавливать поэтому просим помощи у каждого нашего пользователя.
    С сегодняшнего дня, за каждую восстановленную ссылку мы заплатим Вам.
    Подробнее тут -> ссылка
  • Перенесем твои заслуги с другого ресурса!
    Мы понимаем как сложно прокачивать аккаунты на форумах, вроде раскачал аккаунт, а тут появляется ресурс в 100 раз круче но тоже с системой прокачки и снова качать аккаунт...
    Предлагаем вам перенести Ваши заслуги на другом подобном ресурсе к нам.
    Подробности описаны тут -> ссылка
  • Вы можете получать по 2.5% с каждой покупки и продажи на маркете! Подробности в теме Партнёрская программа

Torrent_Bot

Торрент-Бот
Бот форума
4 Окт 2016
124
93
20

Информация о аниме
Английское название: Seikoku no Dragonar
Русское название: Академия драконьих наездников / Метка дракона
Год выпуска: 2014
Жанр: романтика, этти
Режиссёр: Томоюки Курокава, Сюнсукэ Тада, Ютака Хирата
В главных ролях: Кодзи Такахаси, Аянэ Сакура, Аарон Дисмьюк, Elizabeth Parker, Мария Исэ, Джастин Бринер, Патрик Кэрролл, Джаррод Грин, Крис Герерро, Лара Вудхалл

Описание:
Добро пожаловать в Академию Драгонар! В данной академии юные обладатели пар обучаются езде и приручению драконов, это удаётся довольно легко почти всем.
Однако в каждом правиле есть исключения: Эш Блейк, также известный как «проблемный ребёнок №1», чей дракон никогда не появлялся до сих пор. Из-за чего бедняга Эш является предметом насмешек, несмотря на его немаленькую отметку, которая показывает, что он будущий владелец дракона.
И вот наступает тот роковой день, которого он так долго ждал: день, когда пробуждается его дракон. Казалось бы, все проблемы позади, но и тут он смог стать исключением из правил. Точнее, его дракон, который оказался не похожим ни на одного, виденного кем-либо ранее, ведь он предстал в виде красивой девушки!
А ведь это только начало. Что его ждёт дальше?







Страна: Япония
Студия: C-Station
Продолжительность: 12 x ~00:25:00
Озвучивание: Любительский Двухголосый Andryushka & NesTea [TV 01-12] (SHIZA)


Файл
Формат / Кодек: AVI / XviD
Качество: BDRip [Исходник: Blu-Ray Remux 92.68 GB by Панкратий]
Видео:720x400(16:9), 23.976 fps, 1561 Кбит/сек (0.226 bit/pixel)
Аудио №1: AC-3, 48,0 КГц, 2 ch, 192 Кбит/сек, CBR | | SHIZA
Аудио №2: AC-3, 48,0 КГц, 2 ch, 192 Кбит/сек, CBR | | Оригинал

Субтитры: Русские (YakuSub Studio)

Отчет MediaInfo
Общее
Полное имя : D:Аниме[Deadmau-RAWS] Метка.Дракона.2014.S01.RUS.JAP.BDRip.Без.Цензуры.Deadmauvlad.Ep.01.avi
Формат : AVI
Формат/Информация : Audio Video Interleave
Размер файла : 352 Мбайт
Продолжительность : 25 м. 8 с.
Общий поток : 1959 Кбит/сек
Название фильма : [Deadmau-RAWS] Метка.Дракона.2014.S01.RUS.JAP.BDRip.Без.Цензуры.Deadmauvlad.Ep.01
Режиссёр : Encoder by Deadmauvlad
Жанр : Этти, Фэнтези, Гарем
Программа кодирования : VirtualDubMod 1.5.10.3 | www.virtualdub-fr.org || (build 2550/release)
Формат оригинала/Имя : Аниме
Авторское право : Encoder by Deadmauvlad
Примечание : Encoder by Deadmauvlad

Видео
Идентификатор : 0
Формат : MPEG-4 Visual
Профиль формата : Advanced Simple@L5
Настройки формата : BVOP1 / Custom Matrix
Параметр BVOP формата : 1
Параметр QPel формата : Нет
Параметр GMC формата : Без точки перехода
Параметр матрицы формата : Выборочная
Идентификатор кодека : XVID
Идентификатор кодека/Подсказка : XviD
Продолжительность : 25 м. 8 с.
Битрейт : 1561 Кбит/сек
Ширина : 720 пикселей
Высота : 400 пикселей
Соотношение сторон : 16:9
Частота кадров : 23,976 (24000/1001) кадра/сек
Цветовое пространство : YUV
Субдискретизация насыщенности : 4:2:0
Битовая глубина : 8 бит
Тип развёртки : Прогрессивная
Метод сжатия : С потерями
Бит/(Пиксели*Кадры) : 0.226
Размер потока : 281 Мбайт (80%)
Библиотека кодирования : XviD 73

Аудио #1
Идентификатор : 1
Формат : AC-3
Формат/Информация : Audio Coding 3
Коммерческое название : Dolby Digital
Идентификатор кодека : 2000
Продолжительность : 25 м. 8 с.
Вид битрейта : Постоянный
Битрейт : 192 Кбит/сек
Каналы : 2 канала
Channel layout : L R
Частота : 48,0 КГц
Частота кадров : 31,250 кадров/сек (1536 SPF)
Битовая глубина : 16 бит
Метод сжатия : С потерями
Размер потока : 34,5 Мбайт (10%)
Выравнивание : Разделение по промежуткам
Продолжительность промежутка : 42 мс. (1,00 видеокадр)
Время предзагрузки промежутка : 500 мс.

Аудио #2
Идентификатор : 2
Формат : AC-3
Формат/Информация : Audio Coding 3
Коммерческое название : Dolby Digital
Идентификатор кодека : 2000
Продолжительность : 25 м. 8 с.
Вид битрейта : Постоянный
Битрейт : 192 Кбит/сек
Каналы : 2 канала
Channel layout : L R
Частота : 48,0 КГц
Частота кадров : 31,250 кадров/сек (1536 SPF)
Битовая глубина : 16 бит
Метод сжатия : С потерями
Размер потока : 34,5 Мбайт (10%)
Выравнивание : Разделение по промежуткам
Продолжительность промежутка : 42 мс. (1,00 видеокадр)
Время предзагрузки промежутка : 500 мс.

Названия эпизодов:
01. A Boy and His Dragon
02. Ties That Bind: The Astral Flow
03. Riot in the Streets
04. Iron Blood Valkyrie
05. Ice Blue Princess
06. Blue Brionac
07. Lucca Saarinen
08. Moonlit Roar
09. Dragon Dance
10. Assembly in Fontaine
11. Yggdrasil Rising
12. The Star-Branded Dragonar

Скриншоты
Резервные Скиншоты

Наглядное сравнение ТВ версии и Blu-Ray издания
Релиз первого диска Seikoku no Dragonar представил некоторые не совсем удивительные соски героине, служащей огромным обновлением до уже довольно сексуальной серии – а также обычными визуальными улучшениями.


Обычные фан сравнения между TV, BD и AT-X можно наблюдать ниже, с высококачественным BD слева, аналогично, версией AT-X ( отсутствует сцена где героиня лежит голой в водоеме) скриншот внизу справа.


P/S ниже скриншотов выложены доказательства отсутствия цензуры в релизе !!


https://www.sankakucomplex.com/2014/07/02/seikoku-no-dragonar-bd-she-has-nipples-after-all/ < < < < Обзор тут







< < < < < Доказательства / Proof > > > >

Смотрите ЭТТИ БЕЗ Цензуры !!

BD Версия Без Цензуры !!


 

Вложения

  • 9,4 KB Просмотры: 0
    Личеров 0
    Сидеров 0
    Файлов 24
    Объем 4,1 GB
Ваш e-mail не будет опубликован. Он потребуется для подтверждения Вашего поста.
Оформление текста Нажмите «Ввод», чтобы отправить ответ.

Привет!

Мы группа людей которые решили помочь другим в решении их проблем, а так же пользователям с поиском самых свежих и качественных инфопродуктов. За 4 с небольшим месяца мы создали этот форум на который заходят ежедневно тысячи человек и посещаемость постоянно растёт. Мы создали панель лицензирования для защиты PHP скриптов от воровства и SEO панель для мониторинга наших сайтов и выбора верной стратегии их развития. Мы надеемся что то что мы создали пригодится Вам и возможно Вы поможете нам развиваться и совершенствоваться вместе с Вами.

Статистика форума

Темы
378.667
Сообщения
417.823
Пользователи
49.303
Новый пользователь
berish06

Приложения форума для iOS и Android


У ркн там нет власти ;)
Приватные разговоры
Помощь Пользователи
    Вы не присоединились ни к одной комнате.