За последнюю неделю опубликовано 62 новых материалов.
Инструкция новичку Путеводитель по форуму Прокси для Telegram Показать подсказки , это бомба!

Скачать Месть солдата / A Soldier's Revenge (2020) BDRip 720p от MediaBit | L бесплатно через торрент

  • Поучаствуй (в качестве покупателя) в любых пяти совместных покупках (кроме завершённых и "Моментальных") и получи группу "Новичок" навсегда -> ссылка на раздел
  • Получай до 480 рублей за каждого приглашенного пользователя!
    представляем Вам очередное расширение партнерской программы, подробности описаны тут -> ссылка
  • 90% материалов доступно к скачиванию после простой регистрации!
    Если же ты хочешь скачивать материалы без требования оставлять отзывы то получи группу "Новичок", 10 способов повышения описаны тут -> ссылка
  • К сожалению количество битых ссылок растет и мы уже не можем их оперативно восстанавливать поэтому просим помощи у каждого нашего пользователя.
    С сегодняшнего дня, за каждую восстановленную ссылку мы заплатим Вам.
    Подробнее тут -> ссылка
  • Перенесем твои заслуги с другого ресурса!
    Мы понимаем как сложно прокачивать аккаунты на форумах, вроде раскачал аккаунт, а тут появляется ресурс в 100 раз круче но тоже с системой прокачки и снова качать аккаунт...
    Предлагаем вам перенести Ваши заслуги на другом подобном ресурсе к нам.
    Подробности описаны тут -> ссылка
  • Вы можете получать по 2.5% с каждой покупки и продажи на маркете! Подробности в теме Партнёрская программа
Если Вы не хотите скачивать, Вы всегда можетепосмотретьонлайн, просто нажмите кнопку ниже :

Открыть плеер

Torrent_Bot

Торрент-Бот
Бот форума
4 Окт 2016
92
160
20



Информация о фильме
Название: Месть солдата
Оригинальное название: A Soldier's Revenge
Год выхода: 2020
Жанр: Вестерн, драма
Режиссер: Майкл Фейфер
В ролях: Нил Бледсо, Роб Майес, АннаЛинн МакКорд, Вэл Килмер, Джейк Бьюзи, Майкл Боуэн, Джей Пикетт, Майкл Уэлш, Джеймс Руссо, Питер Шерайко

О фильме: Преследуемый ужасами военных лет, Фрэнк Коннор проводит всё своё время за двумя занятиями: пьет виски и ловит беглецов. Однажды у порога его дома оказывается два ребенка, которые отчаянно просят отыскать их пропавшую мать. Фрэнку предстоит лицом к лицу столкнуться со своим прошлым и разобраться с печально известным преступником майором Бриггсом, с которым у него давние счеты.



Страна: США
Студия: Feifer Worldwide, Caravan West Productions
Продолжительность: 02:20:16
Перевод: Любительский многоголосый | Синема УС

Файл
Кодек: MPEG-4 AVC
Качество: BDRip 720p
Видео: 4091 Кбит/с, 1280x544, 23.976 кадр/с
Звук:
Аудио #1: AC3, 48 Гц, 256 Кбит/сек, 2 ch (L + R) | MVO | Синема УС
Аудио #2: AC3, 48 Гц, 640 Кбит/сек, 6 ch (L C R, + L R, LFE) | Английский
Субтитры: Английские


MI
Общее
Уникальный идентификатор : 59747842054329914624282810372223084647 (0x2CF3040C49A62A8BFFB1BE7733272867)
Полное имя : D:ТоррентыA.Soldiers.Revenge.2020.720p.BluRay.x264-LATENCY[rarbg]Mesti.soldata.2020.x264.BDRip(720p)-MediaBit.mkv
Формат : Matroska
Версия формата : Version 4
Размер файла : 4,88 Гбайт
Продолжительность : 2 ч. 20 м.
Общий поток : 4 984 Кбит/сек
Название фильма : Месть солдата / A Soldier's Revenge (2020)
Дата кодирования : UTC 2020-08-16 20:00:26
Программа кодирования : mkvmerge v25.0.0 ('Prog Noir') 64-bit
Библиотека кодирования : libebml v1.3.6 + libmatroska v1.4.9
Attachments : Soldier's Heart .jpg

Видео
Идентификатор : 1
Формат : AVC
Формат/Информация : Advanced Video Codec
Профиль формата : [email protected]
Настройки формата : CABAC / 8 Ref Frames
Параметр CABAC формата : Да
Параметр RefFrames формата : 8 кадров
Идентификатор кодека : V_MPEG4/ISO/AVC
Продолжительность : 2 ч. 19 м.
Битрейт : 4 091 Кбит/сек
Ширина : 1 280 пикселей
Высота : 544 пикселя
Соотношение сторон : 2,35:1
Режим частоты кадров : Постоянный
Частота кадров : 23,976 (24000/1001) кадра/сек
Цветовое пространство : YUV
Субдискретизация насыщенности : 4:2:0
Битовая глубина : 8 бит
Тип развёртки : Прогрессивная
Бит/(Пиксели*Кадры) : 0.245
Размер потока : 3,99 Гбайт (82%)
Заголовок : LATENCY
Библиотека кодирования : x264 core 161 r3018 db0d417
Настройки программы : cabac=1 / ref=8 / deblock=1:-3:-3 / analyse=0x3:0 / me=umh / subme=9 / psy=1 / psy_rd=1.00:0.00 / mixed_ref=1 / me_range=16 / chroma_me=1 / trellis=2 / 8x8dct=1 / cqm=0 / deadzone=21,11 / fast_pskip=1 / chroma_qp_offset=-2 / threads=17 / lookahead_threads=2 / sliced_threads=0 / nr=0 / decimate=1 / interlaced=0 / bluray_compat=0 / constrained_intra=0 / bframes=9 / b_pyramid=2 / b_adapt=2 / b_bias=0 / direct=3 / weightb=0 / open_gop=0 / weightp=2 / keyint=250 / keyint_min=23 / scenecut=40 / intra_refresh=0 / rc=crf / mbtree=0 / crf=17.0 / qcomp=0.60 / qpmin=0 / qpmax=69 / qpstep=4 / ip_ratio=1.40 / pb_ratio=1.30 / aq=3:0.88
Язык : English
Default : Да
Forced : Нет
Цветовой диапазон : Limited
Основные цвета : BT.709
Характеристики трансфера : BT.709
Коэффициенты матрицы : BT.709

Аудио #1
Идентификатор : 2
Формат : AC-3
Формат/Информация : Audio Coding 3
Коммерческое название : Dolby Digital
Идентификатор кодека : A_AC3
Продолжительность : 2 ч. 20 м.
Вид битрейта : Постоянный
Битрейт : 256 Кбит/сек
Каналы : 2 канала
Channel layout : L R
Частота : 48,0 КГц
Частота кадров : 31,250 кадров/сек (1536 SPF)
Метод сжатия : С потерями
Размер потока : 257 Мбайт (5%)
Заголовок : MVO [Синема УС] MediaBit
Язык : Russian
Service kind : Complete Main
Default : Да
Forced : Нет

Аудио #2
Идентификатор : 3
Формат : AC-3
Формат/Информация : Audio Coding 3
Коммерческое название : Dolby Digital
Идентификатор кодека : A_AC3
Продолжительность : 2 ч. 19 м.
Вид битрейта : Постоянный
Битрейт : 640 Кбит/сек
Каналы : 6 каналов
Channel layout : L R C LFE Ls Rs
Частота : 48,0 КГц
Частота кадров : 31,250 кадров/сек (1536 SPF)
Метод сжатия : С потерями
Размер потока : 640 Мбайт (13%)
Заголовок : English
Язык : English
Service kind : Complete Main
Default : Нет
Forced : Нет

Текст
Идентификатор : 4
Формат : PGS
Режим смешивания : zlib
Идентификатор кодека : S_HDMV/PGS
Идентификатор кодека/Информация : Picture based subtitle format used on BDs/HD-DVDs
Продолжительность : 2 ч. 12 м.
Битрейт : 28,4 Кбит/сек
Count of elements : 2708
Размер потока : 27,0 Мбайт (1%)
Заголовок : English
Язык : English
Default : Нет
Forced : Нет

Меню
00:00:00.000 : en:Chapter 01
00:13:26.806 : en:Chapter 02
00:20:39.947 : en:Chapter 03
00:32:30.991 : en:Chapter 04
00:44:25.746 : en:Chapter 05
00:57:17.309 : en:Chapter 06
01:09:32.043 : en:Chapter 07
01:17:57.715 : en:Chapter 08
01:29:27.028 : en:Chapter 09
01:43:40.339 : en:Chapter 10
01:59:42.217 : en:Chapter 11
02:14:32.982 : en:Chapter 12
Скриншоты

Релиз от:
 

Вложения

  • 13,1 KB Просмотры: 0
    Личеров 0
    Сидеров 0
    Файлов 1
    Объем 4,9 GB

Привет!

Мы группа людей которые решили помочь другим в решении их проблем, а так же пользователям с поиском самых свежих и качественных инфопродуктов. За 4 с небольшим месяца мы создали этот форум на который заходят ежедневно тысячи человек и посещаемость постоянно растёт. Мы создали панель лицензирования для защиты PHP скриптов от воровства и SEO панель для мониторинга наших сайтов и выбора верной стратегии их развития. Мы надеемся что то что мы создали пригодится Вам и возможно Вы поможете нам развиваться и совершенствоваться вместе с Вами.

Статистика форума

Темы
406.657
Сообщения
465.111
Пользователи
84.664
Новый пользователь
nastsiqq12

Приложения форума для iOS и Android


У ркн там нет власти ;)
Приватные разговоры
Помощь Пользователи
    Вы не присоединились ни к одной комнате.