За последнюю неделю опубликовано 62 новых материалов.
Инструкция новичку Путеводитель по форуму Прокси для Telegram Показать подсказки , это бомба!

Скачать Месть солдата / A Soldier's Revenge (2020) BDRemux 1080p от MediaBit | L бесплатно через торрент

  • Поучаствуй (в качестве покупателя) в любых пяти совместных покупках (кроме завершённых и "Моментальных") и получи группу "Новичок" навсегда -> ссылка на раздел
  • Получай до 480 рублей за каждого приглашенного пользователя!
    представляем Вам очередное расширение партнерской программы, подробности описаны тут -> ссылка
  • 90% материалов доступно к скачиванию после простой регистрации!
    Если же ты хочешь скачивать материалы без требования оставлять отзывы то получи группу "Новичок", 10 способов повышения описаны тут -> ссылка
  • К сожалению количество битых ссылок растет и мы уже не можем их оперативно восстанавливать поэтому просим помощи у каждого нашего пользователя.
    С сегодняшнего дня, за каждую восстановленную ссылку мы заплатим Вам.
    Подробнее тут -> ссылка
  • Перенесем твои заслуги с другого ресурса!
    Мы понимаем как сложно прокачивать аккаунты на форумах, вроде раскачал аккаунт, а тут появляется ресурс в 100 раз круче но тоже с системой прокачки и снова качать аккаунт...
    Предлагаем вам перенести Ваши заслуги на другом подобном ресурсе к нам.
    Подробности описаны тут -> ссылка
  • Вы можете получать по 2.5% с каждой покупки и продажи на маркете! Подробности в теме Партнёрская программа
Если Вы не хотите скачивать, Вы всегда можетепосмотретьонлайн, просто нажмите кнопку ниже :

Открыть плеер

Torrent_Bot

Торрент-Бот
Бот форума
4 Окт 2016
92
160
20



Информация о фильме
Название: Месть солдата
Оригинальное название: A Soldier's Revenge
Год выхода: 2020
Жанр: Вестерн, драма
Режиссер: Майкл Фейфер
В ролях: Нил Бледсо, Роб Майес, АннаЛинн МакКорд, Вэл Килмер, Джейк Бьюзи, Майкл Боуэн, Джей Пикетт, Майкл Уэлш, Джеймс Руссо, Питер Шерайко

О фильме: Преследуемый ужасами военных лет, Фрэнк Коннор проводит всё своё время за двумя занятиями: пьет виски и ловит беглецов. Однажды у порога его дома оказывается два ребенка, которые отчаянно просят отыскать их пропавшую мать. Фрэнку предстоит лицом к лицу столкнуться со своим прошлым и разобраться с печально известным преступником майором Бриггсом, с которым у него давние счеты.



Страна: США
Студия: Feifer Worldwide, Caravan West Productions
Продолжительность: 02:20:16
Перевод: Любительский многоголосый | Синема УС

Файл
Кодек: MPEG-4 AVC
Качество: BDRemux 1080p
Видео: 17000 Кбит/с, 1920x1080, 23.976 кадр/с
Звук:
Аудио #1: AC3, 48 Гц, 256 Кбит/сек, 2 ch (L + R) | MVO | Синема УС
Аудио #2: DTS-HD MA, 48 Гц, 2396 Кбит/сек, 6 ch (L C R, + L R, LFE) | Английский
Субтитры: Английские


MI
Общее
Уникальный идентификатор : 189296345781299269448102594372791935689 (0x8E69266B0250DDA6CB32B6C4CA57A2C9)
Полное имя : D:ТоррентыSoldiers.Heart.2020.1080p.BluRay.REMUX.AVC.DTS-HD.MA.5.1-FGTMesti.soldata.2020.x264.BDRemux(1080p)-MediaBit.mkv
Формат : Matroska
Версия формата : Version 4
Размер файла : 18,5 Гбайт
Продолжительность : 2 ч. 20 м.
Режим общего битрейта : Переменный
Общий поток : 18,8 Мбит/сек
Название фильма : Месть солдата / A Soldier's Revenge (2020)
Дата кодирования : UTC 2020-08-16 18:34:32
Программа кодирования : mkvmerge v25.0.0 ('Prog Noir') 64-bit
Библиотека кодирования : libebml v1.3.6 + libmatroska v1.4.9
Attachments : Soldier's Heart .jpg

Видео
Идентификатор : 1
Формат : AVC
Формат/Информация : Advanced Video Codec
Профиль формата : [email protected]
Настройки формата : CABAC / 4 Ref Frames
Параметр CABAC формата : Да
Параметр RefFrames формата : 4 кадра
Идентификатор кодека : V_MPEG4/ISO/AVC
Продолжительность : 2 ч. 19 м.
Вид битрейта : Постоянный
Битрейт : 17,0 Мбит/сек
Ширина : 1 920 пикселей
Высота : 1 080 пикселей
Соотношение сторон : 16:9
Режим частоты кадров : Постоянный
Частота кадров : 23,976 (24000/1001) кадра/сек
Цветовое пространство : YUV
Субдискретизация насыщенности : 4:2:0
Битовая глубина : 8 бит
Тип развёртки : Прогрессивная
Бит/(Пиксели*Кадры) : 0.342
Размер потока : 15,9 Гбайт (86%)
Заголовок : MediaBit
Язык : English
Default : Да
Forced : Нет

Аудио #1
Идентификатор : 2
Формат : AC-3
Формат/Информация : Audio Coding 3
Коммерческое название : Dolby Digital
Идентификатор кодека : A_AC3
Продолжительность : 2 ч. 20 м.
Вид битрейта : Постоянный
Битрейт : 256 Кбит/сек
Каналы : 2 канала
Channel layout : L R
Частота : 48,0 КГц
Частота кадров : 31,250 кадров/сек (1536 SPF)
Метод сжатия : С потерями
Размер потока : 257 Мбайт (1%)
Заголовок : MVO [Синема УС] MediaBit
Язык : Russian
Service kind : Complete Main
Default : Да
Forced : Нет

Аудио #2
Идентификатор : 3
Формат : DTS XLL
Формат/Информация : Digital Theater Systems
Коммерческое название : DTS-HD Master Audio
Идентификатор кодека : A_DTS
Продолжительность : 2 ч. 19 м.
Вид битрейта : Переменный
Битрейт : 2 396 Кбит/сек
Каналы : 6 каналов
Channel layout : C L R Ls Rs LFE
Частота : 48,0 КГц
Частота кадров : 93,750 кадра/сек (512 SPF)
Битовая глубина : 16 бит
Метод сжатия : Без потерь
Размер потока : 2,34 Гбайт (13%)
Заголовок : Original
Язык : English
Default : Нет
Forced : Нет

Текст #1
Идентификатор : 4
Формат : UTF-8
Идентификатор кодека : S_TEXT/UTF8
Идентификатор кодека/Информация : UTF-8 Plain Text
Продолжительность : 2 ч. 12 м.
Битрейт : 43 бит/сек
Count of elements : 1548
Размер потока : 42,5 Кбайт (0%)
Заголовок : English-SRT
Язык : English
Default : Нет
Forced : Нет

Текст #2
Идентификатор : 5
Формат : PGS
Режим смешивания : zlib
Идентификатор кодека : S_HDMV/PGS
Идентификатор кодека/Информация : Picture based subtitle format used on BDs/HD-DVDs
Продолжительность : 2 ч. 12 м.
Битрейт : 28,4 Кбит/сек
Count of elements : 2708
Размер потока : 27,0 Мбайт (0%)
Заголовок : English-PGS
Язык : English
Default : Нет
Forced : Нет

Меню
00:00:00.000 : en:Chapter 01
00:13:26.764 : en:Chapter 02
00:20:39.905 : en:Chapter 03
00:32:31.240 : en:Chapter 04
00:44:25.704 : en:Chapter 05
00:57:16.933 : en:Chapter 06
01:09:32.334 : en:Chapter 07
01:17:58.048 : en:Chapter 08
01:29:27.153 : en:Chapter 09
01:43:40.297 : en:Chapter 10
01:59:42.175 : en:Chapter 11
02:14:33.273 : en:Chapter 12
Скриншоты

Релиз от:
 

Вложения

  • 47,1 KB Просмотры: 0
    Личеров 0
    Сидеров 0
    Файлов 1
    Объем 18,5 GB

Привет!

Мы группа людей которые решили помочь другим в решении их проблем, а так же пользователям с поиском самых свежих и качественных инфопродуктов. За 4 с небольшим месяца мы создали этот форум на который заходят ежедневно тысячи человек и посещаемость постоянно растёт. Мы создали панель лицензирования для защиты PHP скриптов от воровства и SEO панель для мониторинга наших сайтов и выбора верной стратегии их развития. Мы надеемся что то что мы создали пригодится Вам и возможно Вы поможете нам развиваться и совершенствоваться вместе с Вами.

Статистика форума

Темы
406.657
Сообщения
465.111
Пользователи
84.664
Новый пользователь
nastsiqq12

Приложения форума для iOS и Android


У ркн там нет власти ;)
Приватные разговоры
Помощь Пользователи
    Вы не присоединились ни к одной комнате.