За последнюю неделю опубликовано 0 новых материалов.
Инструкция новичку Путеводитель по форуму Прокси для Telegram Показать подсказки , это бомба!

Скачать Мексиканец / The Mexican (2001) WEBRip 1080p | D, P, A | Open Matte бесплатно через торрент

  • Поучаствуй (в качестве покупателя) в любых пяти совместных покупках (кроме завершённых и "Моментальных") и получи группу "Новичок" навсегда -> ссылка на раздел
  • Получай до 480 рублей за каждого приглашенного пользователя!
    представляем Вам очередное расширение партнерской программы, подробности описаны тут -> ссылка
  • 90% материалов доступно к скачиванию после простой регистрации!
    Если же ты хочешь скачивать материалы без требования оставлять отзывы то получи группу "Новичок", 10 способов повышения описаны тут -> ссылка
  • К сожалению количество битых ссылок растет и мы уже не можем их оперативно восстанавливать поэтому просим помощи у каждого нашего пользователя.
    С сегодняшнего дня, за каждую восстановленную ссылку мы заплатим Вам.
    Подробнее тут -> ссылка
  • Перенесем твои заслуги с другого ресурса!
    Мы понимаем как сложно прокачивать аккаунты на форумах, вроде раскачал аккаунт, а тут появляется ресурс в 100 раз круче но тоже с системой прокачки и снова качать аккаунт...
    Предлагаем вам перенести Ваши заслуги на другом подобном ресурсе к нам.
    Подробности описаны тут -> ссылка
  • Вы можете получать по 2.5% с каждой покупки и продажи на маркете! Подробности в теме Партнёрская программа
Если Вы не хотите скачивать, Вы всегда можетепосмотретьонлайн, просто нажмите кнопку ниже :

Открыть плеер

Torrent_Bot

Торрент-Бот
Бот форума
4 Окт 2016
79
196
20
e948f56b8ae8a6ab59d7fd4db7091476.jpg
Информация о фильме
Год выхода: 2001
Жанр: Боевик, комедия, мелодрама, приключения, криминал
Режиссер: Гор Вербински
В ролях: Брэд Питт, Джулия Робертс, Джеймс Гандольфини, Дж.К. Симмонс, Боб Бэлабан, Шерман Огастас, Майкл Серверис, Джин Хэкмен, Ричард Кока, Дэвид Крумхольц, Кастуло Герра, Майра Сербуло, Сальвадор Санчес, Алан Сьянгеротти, Мелиса Ромеро, Эрнесто Гомес Крус, Дэниэл Эскобар, Дэйл Рауль, Джереми Робертс, Жорже Малпика, Педро Армендарис мл., Стив Росси, Клинт Кертис, Лоуренс Бендер, Ариан Пеллисер, Карлос Лакамара, Дэниэл Зацапа, Альфредо Эскобар, Луис Артагнан, Фермин Мартинес, Хосе Карлос Родригез...

О фильме:
Мелкий гангстер Джерри Уэлбах получает в один день сразу два ультиматума. Его босс — главарь банды — требует, чтобы Джерри срочно разыскал в Мексике бесценный антикварный пистолет, прозванный «Мексиканец», или… незамедлительно вернул все долги. Его подружка Саманта тоже ставит вопрос ребром: или она или банда. Из двух зол Джерри выбирает меньшее, и отправляется в Мексику за пистолетом. Но вскоре выясняется, что заполучить «Мексиканца» мечтает не он один. Но и два профессиональных киллера…



Страна: США
Продолжительность: 02:03:21
Перевод №1: Профессиональный (дублированный)
Перевод №2: Профессиональный (Многоголосый закадровый) - Премьер Видео Фильм
Перевод №3: Авторский (одноголосый закадровый) - Ю.Живов

Файл
Формат: mkv
Качество: WEBRip 1080p | Open Mate
Видео: MPEG-4 AVC, 5120 Кбит/с, 1920x1080, 23.976 кадр/с
Аудио#1: 48 kHz, AC3, 3/2 (L,C,R,l,r) + LFE ch, ~384.00 kbps avg |Дублированный|
Аудио#2: 48 kHz, AC3, 3/2 (L,C,R,l,r) + LFE ch, ~384.00 kbps avg |Многоголосый закадровый, Премьер Видео Фильм|
Аудио#3: 48 kHz, DTS, 3/2 (L,C,R,l,r) + LFE ch, ~1509 |Одноголосый закадровый, Ю.Живов|
Субтитры: Русские, английские

Blu-rayvs WEB DL Online



M/I
General
Unique ID : 117741874800519921213744747765557875527 (0x5894429F003BF62BA922BC94B82BD347)
Complete name : F:FILMSМексиканец.2001.WEBRip-1080p_[Open Matte].mkv
Format : Matroska
Format version : Version 4 / Version 2
File size : 6.18 GiB
Duration : 2 h 3 min
Overall bit rate : 7 176 kb/s
Encoded date : UTC 2018-03-05 16:54:41
Writing application : mkvmerge v21.0.0 ('Tardigrades Will Inherit The Earth') 64-bit
Writing library : libebml v1.3.5 + libmatroska v1.4.8

Video
ID : 1
Format : AVC
Format/Info : Advanced Video Codec
Format profile : [email protected]
Format settings : CABAC / 4 Ref Frames
Format settings, CABAC : Yes
Format settings, ReFrames : 4 frames
Codec ID : V_MPEG4/ISO/AVC
Duration : 2 h 3 min
Bit rate : 5 120 kb/s
Width : 1 920 pixels
Height : 1 080 pixels
Display aspect ratio : 16:9
Frame rate mode : Constant
Frame rate : 23.976 (24000/1001) FPS
Color space : YUV
Chroma subsampling : 4:2:0
Bit depth : 8 bits
Scan type : Progressive
Bits/(Pixel*Frame) : 0.103
Stream size : 4.22 GiB (68%)
Writing library : x264 core 142
Encoding settings : cabac=1 / ref=3 / deblock=1:0:0 / analyse=0x3:0x113 / me=hex / subme=7 / psy=1 / psy_rd=1.00:0.00 / mixed_ref=1 / me_range=16 / chroma_me=1 / trellis=1 / 8x8dct=1 / cqm=0 / deadzone=21,11 / fast_pskip=1 / chroma_qp_offset=-2 / threads=4 / lookahead_threads=1 / sliced_threads=0 / nr=0 / decimate=1 / interlaced=0 / bluray_compat=0 / constrained_intra=0 / bframes=6 / b_pyramid=2 / b_adapt=1 / b_bias=0 / direct=1 / weightb=1 / open_gop=0 / weightp=2 / keyint=200 / keyint_min=20 / scenecut=0 / intra_refresh=0 / rc_lookahead=40 / rc=2pass / mbtree=1 / bitrate=5120 / ratetol=1.0 / qcomp=0.60 / qpmin=0 / qpmax=69 / qpstep=4 / cplxblur=20.0 / qblur=0.5 / vbv_maxrate=7680 / vbv_bufsize=20480 / nal_hrd=none / filler=0 / ip_ratio=1.40 / aq=1:1.00
Language : English
Default : Yes
Forced : No

Audio #1
ID : 2
Format : AC-3
Format/Info : Audio Coding 3
Codec ID : A_AC3
Duration : 2 h 3 min
Bit rate mode : Constant
Bit rate : 384 kb/s
Channel(s) : 6 channels
Channel positions : Front: L C R, Side: L R, LFE
Sampling rate : 48.0 kHz
Frame rate : 31.250 FPS (1536 SPF)
Bit depth : 16 bits
Compression mode : Lossy
Stream size : 339 MiB (5%)
Title : Дубляж
Language : Russian
Service kind : Complete Main
Default : Yes
Forced : No

Audio #2
ID : 3
Format : AC-3
Format/Info : Audio Coding 3
Codec ID : A_AC3
Duration : 2 h 3 min
Bit rate mode : Constant
Bit rate : 384 kb/s
Channel(s) : 6 channels
Channel positions : Front: L C R, Side: L R, LFE
Sampling rate : 48.0 kHz
Frame rate : 31.250 FPS (1536 SPF)
Bit depth : 16 bits
Compression mode : Lossy
Stream size : 339 MiB (5%)
Title : Премьер Видео, R5
Language : Russian
Service kind : Complete Main
Default : No
Forced : No

Audio #3
ID : 4
Format : DTS
Format/Info : Digital Theater Systems
Codec ID : A_DTS
Duration : 2 h 3 min
Bit rate mode : Constant
Bit rate : 1 510 kb/s
Channel(s) : 6 channels
Channel positions : Front: L C R, Side: L R, LFE
Sampling rate : 48.0 kHz
Frame rate : 93.750 FPS (512 SPF)
Bit depth : 24 bits
Compression mode : Lossy
Stream size : 1.30 GiB (21%)
Title : Ю.Живов
Language : Russian
Default : No
Forced : No

Text #1
ID : 5
Format : UTF-8
Codec ID : S_TEXT/UTF8
Codec ID/Info : UTF-8 Plain Text
Duration : 1 h 58 min
Bit rate : 84 b/s
Count of elements : 1121
Stream size : 72.8 KiB (0%)
Language : Russian
Default : No
Forced : No

Text #2
ID : 6
Format : UTF-8
Codec ID : S_TEXT/UTF8
Codec ID/Info : UTF-8 Plain Text
Duration : 1 h 58 min
Bit rate : 145 b/s
Count of elements : 1394
Stream size : 126 KiB (0%)
Language : Russian
Default : No
Forced : No

Text #3
ID : 7
Format : UTF-8
Codec ID : S_TEXT/UTF8
Codec ID/Info : UTF-8 Plain Text
Duration : 2 h 2 min
Bit rate : 52 b/s
Count of elements : 1343
Stream size : 47.3 KiB (0%)
Language : English
Default : No
Forced : No
Скриншоты
29029216a84e95eaf95e3cc1d4318196.jpg8bcdaadfc5d4c7298d05ea3c7f193919.jpg78365cc736baa080f508adeb9b2a6c23.jpg9eebfe83b9ded68d4e535d805874031f.jpg2d6cd7d9c79a56d643827559d6faa3cc.jpg2bab9eef1e3dedba4d5bbb3b0fa830af.jpgdc9cdaca6de21c68b1403da3472c8a36.jpg2358b9e8c3bf0751f6123f19911a07cf.jpg
 

Вложения

Привет!

Мы группа людей которые решили помочь другим в решении их проблем, а так же пользователям с поиском самых свежих и качественных инфопродуктов. За 4 с небольшим месяца мы создали этот форум на который заходят ежедневно тысячи человек и посещаемость постоянно растёт. Мы создали панель лицензирования для защиты PHP скриптов от воровства и SEO панель для мониторинга наших сайтов и выбора верной стратегии их развития. Мы надеемся что то что мы создали пригодится Вам и возможно Вы поможете нам развиваться и совершенствоваться вместе с Вами.

Статистика форума

Темы
414.370
Сообщения
475.396
Пользователи
96.561
Новый пользователь
starushka

Приложения форума для iOS и Android


У ркн там нет власти ;)
Приватные разговоры
Помощь Пользователи
    Вы не присоединились ни к одной комнате.