За последнюю неделю опубликовано 97 новых материалов.
Инструкция новичку Путеводитель по форуму Прокси для Telegram Показать подсказки , это бомба!

Скачать Мэри и ведьмин цветок / Mary to Majo no Hana (2017) BDRip от Deadmauvlad | iTunes бесплатно через торрент

  • Поучаствуй (в качестве покупателя) в любых пяти совместных покупках (кроме завершённых и "Моментальных") и получи группу "Новичок" навсегда -> ссылка на раздел
  • Получай до 480 рублей за каждого приглашенного пользователя!
    представляем Вам очередное расширение партнерской программы, подробности описаны тут -> ссылка
  • 90% материалов доступно к скачиванию после простой регистрации!
    Если же ты хочешь скачивать материалы без требования оставлять отзывы то получи группу "Новичок", 10 способов повышения описаны тут -> ссылка
  • К сожалению количество битых ссылок растет и мы уже не можем их оперативно восстанавливать поэтому просим помощи у каждого нашего пользователя.
    С сегодняшнего дня, за каждую восстановленную ссылку мы заплатим Вам.
    Подробнее тут -> ссылка
  • Перенесем твои заслуги с другого ресурса!
    Мы понимаем как сложно прокачивать аккаунты на форумах, вроде раскачал аккаунт, а тут появляется ресурс в 100 раз круче но тоже с системой прокачки и снова качать аккаунт...
    Предлагаем вам перенести Ваши заслуги на другом подобном ресурсе к нам.
    Подробности описаны тут -> ссылка
  • Вы можете получать по 2.5% с каждой покупки и продажи на маркете! Подробности в теме Партнёрская программа

Torrent_Bot

Торрент-Бот
Бот форума
4 Окт 2016
79
194
20

Информация о фильме
Название: Мэри и ведьмин цветок
Оригинальное название: Mary to Majo no Hana
Год выхода: 2017
Жанр: приключения, фэнтези, магия
Режиссер: Ёнэбаяси Хиромаса
Автор оригинала: Мэри Стюарт
В ролях: Хана Сугисаки, Рюносукэ Камики, Юки Амами, Фумиё Кохината, Хикари Мицусима, Дзиро Сато, Кэнъити Эндо, Эри Ватанабэ, Синобу Отакэ, Луис Эшборн Серкис

О фильме: Однажды, жизнь юной Мэри переворачивается с ног на голову. Происходит это, когда черный кот по имени Тиб приводит ее к странному цветку, что находится в глубине леса. Вскоре после любования цветком девочка обнаруживает маленькую метлу, которая внезапно поднимает ее в воздух. Не успела Мэри опомниться, как неугомонная метла пронесла ее по верхушкам деревьев, сквозь облака, а затем высадила прямо к подножию колледжа Эндор, где проводятся «все необходимые испытания для выпуска самых квалифицированных ведьм».
Здесь Мэри становится свидетелем чудовищных экспериментов над животными — изуродованных мутантов, запертых в клетках. Вернувшись домой, героиня с ужасом осознает, что Тиб исчез. На следующий день Мэри решает вернуться и освободить бедных зверей.




Страна: Япония
Студия: Studio Ponoc
Продолжительность: 01:42:48
Перевод : Профессиональный (полное дублирование) Мосфильм (aka iTunes)
Перевод : Оригинал + Субтитры

Файл
Формат: AVI
Кодек:XviD
Качество:BDRip
Видео: 720x384 (1.85:1), 23.976 fps, 2 258 kb/s (0.341 bit/pixel)
Аудио №1: AC3, 48.0 kHz, 6 ch, 384 kb/s, CBR | | iTunes
Аудио №2: AC3, 48.0 kHz, 6 ch, 384 kb/s, CBR | | Japan (Оригинал)
Субтитры: Русские (полные); English (Full Sub)


MediaInfo
General
Complete name : [Deadmau- RAWS] Mary.to.Majo.no.Hana.RUS.ENG.JAP.BDRip.2.18.GB.avi
Format : AVI
Format/Info : Audio Video Interleave
Format profile : OpenDML
File size : 2.19 GiB
Duration : 1 h 42 min
Overall bit rate : 3 043 kb/s
Movie name : [Deadmau- RAWS] Мэри.и.ведьмин.цветок.RUS.ENG.JAP.BDRip.2.18.GB
Director : Encoder by Deadmauvlad
Genre : Семейный
Writing application : VirtualDubMod 1.5.10.3 | www.virtualdub-fr.org || (build 2550/release)
Original source form/Name : Аниме
Copyright : Encoder by Deadmauvlad
Comment : Encoder by Deadmauvlad

Video
ID : 0
Format : MPEG-4 Visual
Format profile : Advanced [email protected]
Format settings : BVOP1 / Custom Matrix
Format settings, BVOP : 1
Format settings, QPel : No
Format settings, GMC : No warppoints
Format settings, Matrix : Custom
Codec ID : XVID
Codec ID/Hint : XviD
Duration : 1 h 42 min
Bit rate : 2 258 kb/s
Width : 720 pixels
Height : 384 pixels
Display aspect ratio : 1.85:1
Frame rate : 23.976 (24000/1001) FPS
Color space : YUV
Chroma subsampling : 4:2:0
Bit depth : 8 bits
Scan type : Progressive
Compression mode : Lossy
Bits/(Pixel*Frame) : 0.341
Stream size : 1.62 GiB (74%)
Writing library : XviD 73

Audio #1
ID : 1
Format : AC-3
Format/Info : Audio Coding 3
Commercial name : Dolby Digital
Codec ID : 2000
Duration : 1 h 42 min
Bit rate mode : Constant
Bit rate : 384 kb/s
Channel(s) : 6 channels
Channel layout : L R C LFE Ls Rs
Sampling rate : 48.0 kHz
Frame rate : 31.250 FPS (1536 SPF)
Bit depth : 16 bits
Compression mode : Lossy
Stream size : 282 MiB (13%)
Alignment : Split accross interleaves
Interleave, duration : 42 ms (1.00 video frame)
Interleave, preload duration : 500 ms

Audio #2
ID : 2
Format : AC-3
Format/Info : Audio Coding 3
Commercial name : Dolby Digital
Codec ID : 2000
Duration : 1 h 42 min
Bit rate mode : Constant
Bit rate : 384 kb/s
Channel(s) : 6 channels
Channel layout : L R C LFE Ls Rs
Sampling rate : 48.0 kHz
Frame rate : 31.250 FPS (1536 SPF)
Bit depth : 16 bits
Compression mode : Lossy
Stream size : 282 MiB (13%)
Alignment : Split accross interleaves
Interleave, duration : 42 ms (1.00 video frame)
Interleave, preload duration : 500 ms

Скриншоты

Релиз / Автор рипа:Deadmauvlad ^_^

 

Вложения

  • 4,2 KB Просмотры: 1
    Личеров 0
    Сидеров 0
    Файлов 4
    Объем 2,2 GB

Привет!

Мы группа людей которые решили помочь другим в решении их проблем, а так же пользователям с поиском самых свежих и качественных инфопродуктов. За 4 с небольшим месяца мы создали этот форум на который заходят ежедневно тысячи человек и посещаемость постоянно растёт. Мы создали панель лицензирования для защиты PHP скриптов от воровства и SEO панель для мониторинга наших сайтов и выбора верной стратегии их развития. Мы надеемся что то что мы создали пригодится Вам и возможно Вы поможете нам развиваться и совершенствоваться вместе с Вами.

Статистика форума

Темы
414.370
Сообщения
475.396
Пользователи
96.561
Новый пользователь
starushka

Приложения форума для iOS и Android


У ркн там нет власти ;)
Приватные разговоры
Помощь Пользователи
    Вы не присоединились ни к одной комнате.