За последнюю неделю опубликовано 56 новых материалов.
Инструкция новичку Путеводитель по форуму Прокси для Telegram Показать подсказки , это бомба!

Скачать Мэри и ведьмин цветок / Mary to Majo no Hana (2017) BDRip 1080p от Deadmauvlad | iTunes, HDRezka Studio, Alexfilm, Сербин бесплатно через торрент

  • Поучаствуй (в качестве покупателя) в любых пяти совместных покупках (кроме завершённых и "Моментальных") и получи группу "Новичок" навсегда -> ссылка на раздел
  • Получай до 480 рублей за каждого приглашенного пользователя!
    представляем Вам очередное расширение партнерской программы, подробности описаны тут -> ссылка
  • 90% материалов доступно к скачиванию после простой регистрации!
    Если же ты хочешь скачивать материалы без требования оставлять отзывы то получи группу "Новичок", 10 способов повышения описаны тут -> ссылка
  • К сожалению количество битых ссылок растет и мы уже не можем их оперативно восстанавливать поэтому просим помощи у каждого нашего пользователя.
    С сегодняшнего дня, за каждую восстановленную ссылку мы заплатим Вам.
    Подробнее тут -> ссылка
  • Перенесем твои заслуги с другого ресурса!
    Мы понимаем как сложно прокачивать аккаунты на форумах, вроде раскачал аккаунт, а тут появляется ресурс в 100 раз круче но тоже с системой прокачки и снова качать аккаунт...
    Предлагаем вам перенести Ваши заслуги на другом подобном ресурсе к нам.
    Подробности описаны тут -> ссылка
  • Вы можете получать по 2.5% с каждой покупки и продажи на маркете! Подробности в теме Партнёрская программа

Torrent_Bot

Торрент-Бот
Бот форума
4 Окт 2016
79
194
20

Информация о фильме
Название: Мэри и ведьмин цветок
Оригинальное название: Mary to Majo no Hana
Год выхода: 2017
Жанр: приключения, фэнтези, магия
Режиссер: Ёнэбаяси Хиромаса
Автор оригинала: Мэри Стюарт
В ролях: Хана Сугисаки, Рюносукэ Камики, Юки Амами, Фумиё Кохината, Хикари Мицусима, Дзиро Сато, Кэнъити Эндо, Эри Ватанабэ, Синобу Отакэ, Луис Эшборн Серкис

О фильме: Однажды, жизнь юной Мэри переворачивается с ног на голову. Происходит это, когда черный кот по имени Тиб приводит ее к странному цветку, что находится в глубине леса. Вскоре после любования цветком девочка обнаруживает маленькую метлу, которая внезапно поднимает ее в воздух. Не успела Мэри опомниться, как неугомонная метла пронесла ее по верхушкам деревьев, сквозь облака, а затем высадила прямо к подножию колледжа Эндор, где проводятся «все необходимые испытания для выпуска самых квалифицированных ведьм».
Здесь Мэри становится свидетелем чудовищных экспериментов над животными — изуродованных мутантов, запертых в клетках. Вернувшись домой, героиня с ужасом осознает, что Тиб исчез. На следующий день Мэри решает вернуться и освободить бедных зверей.




Страна: Япония
Студия: Studio Ponoc
Продолжительность: 01:42:48
Перевод : Профессиональный (полное дублирование) Мосфильм (aka iTunes)
Перевод : Профессиональный (многоголосый) Alexfilm
Перевод : Профессиональный (многоголосый) HDRezka Studio
Перевод : Авторский одноголосый Ю.Сербин
Перевод : Оригинал + Субтитры

Файл
Формат: MKV
Кодек:AVC [10 bit Ver]
Качество:BDRip 1080p
Видео: 1920x1040 (1.85:1), 23.976 fps, 9 500 kb/s (0.198 bit/pixel)
Аудио №1: AC3, 48.0 kHz, 6 ch, 384 kb/s, CBR | | iTunes
Аудио №2: AC3, 48.0 kHz, 6 ch, 640 kb/s, CBR | | Alexfilm
Аудио №3: AC3, 48.0 kHz, 6 ch, 448 kb/s, CBR | | HDRezka Studio
Аудио №4: AC3, 48.0 kHz, 6 ch, 640 kb/s, CBR | | Сербин
Аудио №5: AC3, 48.0 kHz, 6 ch, 448 kb/s, CBR | | English DUB
Аудио №6: AC3, 48,0 КГц, 6 ch, 640 Кбит/сек, CBR | | Japan (Оригинал)
Субтитры: Русские (полные); English (Full Sub)


MediaInfo
General
Unique ID : 228750227667058236904643679563510738152 (0xAC17B0FAABD1C56BC0FA10C11ADC6CE8)
Complete name : [Deadmau- RAWS] Мэри.и.ведьмин.цветок.RUS.ENG.JAP.BDRip.1080p.10bit.Ver.Deadmauvlad.mkv
Format : Matroska
Format version : Version 4
File size : 9.07 GiB
Duration : 1 h 42 min
Overall bit rate : 12.6 Mb/s
Movie name : [Deadmau- RAWS] Мэри.и.ведьмин.цветок.RUS.ENG.JAP.BDRip.1080p.10bit.Ver.Deadmauvlad
Encoded date : UTC 2020-09-20 10:31:51
Writing application : mkvmerge v49.0.0 ('Sick Of Losing Soulmates') 32-bit
Writing library : libebml v1.4.0 + libmatroska v1.6.1

Video
ID : 1
Format : AVC
Format/Info : Advanced Video Codec
Format profile : High [email protected]
Format settings : CABAC / 4 Ref Frames
Format settings, CABAC : Yes
Format settings, ReFrames : 4 frames
Codec ID : V_MPEG4/ISO/AVC
Duration : 1 h 42 min
Bit rate : 9 500 kb/s
Width : 1 920 pixels
Height : 1 040 pixels
Display aspect ratio : 1.85:1
Frame rate mode : Constant
Frame rate : 23.976 (24000/1001) FPS
Color space : YUV
Chroma subsampling : 4:2:0
Bit depth : 10 bits
Scan type : Progressive
Bits/(Pixel*Frame) : 0.198
Stream size : 6.77 GiB (75%)
Title : Encoder by Deadmauvlad ^_^
Writing library : x264 core 152 r2851 ba24899
Encoding settings : cabac=1 / ref=4 / deblock=1:1:-1 / analyse=0x3:0x113 / me=umh / subme=10 / psy=1 / psy_rd=1.15:0.00 / mixed_ref=0 / me_range=38 / chroma_me=1 / trellis=2 / 8x8dct=1 / cqm=0 / deadzone=21,11 / fast_pskip=1 / chroma_qp_offset=-6 / threads=20 / lookahead_threads=5 / sliced_threads=0 / nr=0 / decimate=1 / interlaced=0 / bluray_compat=0 / constrained_intra=0 / bframes=16 / b_pyramid=2 / b_adapt=2 / b_bias=0 / direct=1 / weightb=1 / open_gop=0 / weightp=2 / keyint=240 / keyint_min=24 / scenecut=40 / intra_refresh=0 / rc_lookahead=60 / rc=2pass / mbtree=1 / bitrate=9500 / ratetol=1.0 / qcomp=0.75 / qpmin=8 / qpmax=81 / qpstep=4 / cplxblur=20.0 / qblur=0.5 / vbv_maxrate=9500 / vbv_bufsize=95000 / nal_hrd=none / filler=0 / ip_ratio=1.48 / aq=1:1.50
Language : Polish
Default : Yes
Forced : No
Color range : Limited
Color primaries : BT.709
Transfer characteristics : BT.709
Matrix coefficients : BT.709

Audio #1
ID : 2
Format : AC-3
Format/Info : Audio Coding 3
Commercial name : Dolby Digital
Codec ID : A_AC3
Duration : 1 h 42 min
Bit rate mode : Constant
Bit rate : 384 kb/s
Channel(s) : 6 channels
Channel layout : L R C LFE Ls Rs
Sampling rate : 48.0 kHz
Frame rate : 31.250 FPS (1536 SPF)
Bit depth : 16 bits
Compression mode : Lossy
Stream size : 282 MiB (3%)
Title : Дубляж Мосфильм (aka iTunes)
Language : Russian
Default : No
Forced : No

Audio #2
ID : 3
Format : AC-3
Format/Info : Audio Coding 3
Commercial name : Dolby Digital
Codec ID : A_AC3
Duration : 1 h 42 min
Bit rate mode : Constant
Bit rate : 640 kb/s
Channel(s) : 6 channels
Channel layout : L R C LFE Ls Rs
Sampling rate : 48.0 kHz
Frame rate : 31.250 FPS (1536 SPF)
Bit depth : 16 bits
Compression mode : Lossy
Stream size : 471 MiB (5%)
Title : MVO Alexfilm
Language : Russian
Default : No
Forced : No

Audio #3
ID : 4
Format : AC-3
Format/Info : Audio Coding 3
Commercial name : Dolby Digital
Codec ID : A_AC3
Duration : 1 h 42 min
Bit rate mode : Constant
Bit rate : 448 kb/s
Channel(s) : 6 channels
Channel layout : L R C LFE Ls Rs
Sampling rate : 48.0 kHz
Frame rate : 31.250 FPS (1536 SPF)
Bit depth : 16 bits
Compression mode : Lossy
Stream size : 329 MiB (4%)
Title : HDRezka
Language : Russian
Default : No
Forced : No

Audio #4
ID : 5
Format : AC-3
Format/Info : Audio Coding 3
Commercial name : Dolby Digital
Codec ID : A_AC3
Duration : 1 h 42 min
Bit rate mode : Constant
Bit rate : 640 kb/s
Channel(s) : 6 channels
Channel layout : L R C LFE Ls Rs
Sampling rate : 48.0 kHz
Frame rate : 31.250 FPS (1536 SPF)
Bit depth : 16 bits
Compression mode : Lossy
Stream size : 471 MiB (5%)
Title : AVO [Сербин]
Language : Russian
Default : No
Forced : No

Audio #5
ID : 6
Format : AC-3
Format/Info : Audio Coding 3
Commercial name : Dolby Digital
Codec ID : A_AC3
Duration : 1 h 42 min
Bit rate mode : Constant
Bit rate : 448 kb/s
Channel(s) : 6 channels
Channel layout : L R C LFE Ls Rs
Sampling rate : 48.0 kHz
Frame rate : 31.250 FPS (1536 SPF)
Bit depth : 16 bits
Compression mode : Lossy
Stream size : 329 MiB (4%)
Title : ENGLISH Dubbed
Language : English
Default : No
Forced : No

Audio #6
ID : 7
Format : AC-3
Format/Info : Audio Coding 3
Commercial name : Dolby Digital
Codec ID : A_AC3
Duration : 1 h 42 min
Bit rate mode : Constant
Bit rate : 640 kb/s
Channel(s) : 6 channels
Channel layout : L R C LFE Ls Rs
Sampling rate : 48.0 kHz
Frame rate : 31.250 FPS (1536 SPF)
Bit depth : 16 bits
Compression mode : Lossy
Stream size : 471 MiB (5%)
Title : Original
Language : Japanese
Default : No
Forced : No

Text #1
ID : 8
Format : ASS
Codec ID : S_TEXT/ASS
Codec ID/Info : Advanced Sub Station Alpha
Duration : 1 h 42 min
Bit rate : 534 b/s
Count of elements : 2912
Compression mode : Lossless
Stream size : 399 KiB (0%)
Title : Rus Sub Shift & BBNG & suffering pain
Language : Russian
Default : No
Forced : No

Text #2
ID : 9
Format : UTF-8
Codec ID : S_TEXT/UTF8
Codec ID/Info : UTF-8 Plain Text
Duration : 1 h 37 min
Bit rate : 64 b/s
Count of elements : 995
Stream size : 46.0 KiB (0%)
Title : Rus Sub by KK
Language : Russian
Default : No
Forced : No

Text #3
ID : 10
Format : ASS
Codec ID : S_TEXT/ASS
Codec ID/Info : Advanced Sub Station Alpha
Duration : 1 h 42 min
Bit rate : 65 b/s
Count of elements : 1014
Compression mode : Lossless
Stream size : 48.7 KiB (0%)
Title : Ver.01
Language : English
Default : No
Forced : No

Text #4
ID : 11
Format : ASS
Codec ID : S_TEXT/ASS
Codec ID/Info : Advanced Sub Station Alpha
Duration : 1 h 42 min
Bit rate : 78 b/s
Count of elements : 1035
Compression mode : Lossless
Stream size : 58.6 KiB (0%)
Title : Ver.02
Language : English
Default : No
Forced : No

Скриншоты

Релиз / Автор рипа:Deadmauvlad ^_^

 

Вложения

  • 12,3 KB Просмотры: 1
    Личеров 0
    Сидеров 0
    Файлов 1
    Объем 9,1 GB

Привет!

Мы группа людей которые решили помочь другим в решении их проблем, а так же пользователям с поиском самых свежих и качественных инфопродуктов. За 4 с небольшим месяца мы создали этот форум на который заходят ежедневно тысячи человек и посещаемость постоянно растёт. Мы создали панель лицензирования для защиты PHP скриптов от воровства и SEO панель для мониторинга наших сайтов и выбора верной стратегии их развития. Мы надеемся что то что мы создали пригодится Вам и возможно Вы поможете нам развиваться и совершенствоваться вместе с Вами.

Статистика форума

Темы
414.370
Сообщения
475.396
Пользователи
96.561
Новый пользователь
starushka

Приложения форума для iOS и Android


У ркн там нет власти ;)
Приватные разговоры
Помощь Пользователи
    Вы не присоединились ни к одной комнате.