За последнюю неделю опубликовано 128 новых материалов.
Инструкция новичку Путеводитель по форуму Прокси для Telegram Показать подсказки , это бомба!

Скачать Мечте навстречу (1963) DVDRip-AVC от KORSAR бесплатно через торрент

  • Поучаствуй (в качестве покупателя) в любых пяти совместных покупках (кроме завершённых и "Моментальных") и получи группу "Новичок" навсегда -> ссылка на раздел
  • Получай до 480 рублей за каждого приглашенного пользователя!
    представляем Вам очередное расширение партнерской программы, подробности описаны тут -> ссылка
  • 90% материалов доступно к скачиванию после простой регистрации!
    Если же ты хочешь скачивать материалы без требования оставлять отзывы то получи группу "Новичок", 10 способов повышения описаны тут -> ссылка
  • К сожалению количество битых ссылок растет и мы уже не можем их оперативно восстанавливать поэтому просим помощи у каждого нашего пользователя.
    С сегодняшнего дня, за каждую восстановленную ссылку мы заплатим Вам.
    Подробнее тут -> ссылка
  • Перенесем твои заслуги с другого ресурса!
    Мы понимаем как сложно прокачивать аккаунты на форумах, вроде раскачал аккаунт, а тут появляется ресурс в 100 раз круче но тоже с системой прокачки и снова качать аккаунт...
    Предлагаем вам перенести Ваши заслуги на другом подобном ресурсе к нам.
    Подробности описаны тут -> ссылка
  • Вы можете получать по 2.5% с каждой покупки и продажи на маркете! Подробности в теме Партнёрская программа
Если Вы не хотите скачивать, Вы всегда можетепосмотретьонлайн, просто нажмите кнопку ниже :

Открыть плеер

Torrent_Bot

Торрент-Бот
Бот форума
4 Окт 2016
124
95
20

Жанр: фантастика
Год выпуска: 1963
Продолжительность: 01:02:49
Режиссёр: Михаил Карюков, Отар Коберидзе
В ролях:Лариса Гордейчик, Борис Борисёнок, Отар Коберидзе, Петер Кард, А. Генесин, В. Янпавлис, Николай Тимофеев, Николай Волков, Татьяна Почепа, Л. Чиниджаней

Описание:Звездолет, направляющийся на Землю с планеты Центурий, недалеко от Марса терпит аварию. Чтобы разыскать пришельцев из вселенной и помочь им, с Земли стартует межзвездный корабль «Океан», на борту которого находится радиоастроном Таня. Вскоре на Луну, с целью обеспечения «Океана» дополнительной энергией, посылают вторую ракету. На ее борту стартуют Баталов и Андрей — человек, который бесконечно дорог Тане…



Релиз от:

Кодек: х264
Качество: DVDRip-AVC
Видео: MPEG-4 AVC, 716x574@763x574, 25 fps, 1786 Кбит/с
Звук: AC3, 2 ch, 192 Кбит/с




Инфо файл

  • x264 [info]: frame I:595 Avg QP:17.22 size: 66678
    x264 [info]: frame P:20666 Avg QP:18.75 size: 24549
    x264 [info]: frame B:72985 Avg QP:21.43 size: 4291
Общее
Уникальный идентификатор : 186278580814733000649313443672273270572 (0x8C23F31E281F833482F6BC140075372C)
Полное имя : D:Мечте навстречу_1963-DVDRip-AVC_KORSAR.mkv
Формат : Matroska
Версия формата : Version 2
Размер файла : 907 Мбайт
Продолжительность : 1 ч. 2 м.
Общий поток : 2018 Кбит/сек
Название фильма : Мечте навстречу_1963-DVDRip-AVC_KORSAR
Дата кодирования : UTC 2018-07-31 15:54:17
Программа кодирования : mkvmerge v5.8.0 ('No Sleep / Pillow') built on Sep 2 2012 15:37:04
Библиотека кодирования : libebml v1.2.3 + libmatroska v1.3.0

Видео
Идентификатор : 1
Формат : AVC
Формат/Информация : Advanced Video Codec
Профиль формата : High@L4.1
Параметр CABAC формата : Да
Параметр RefFrames формата : 15 кадров
Идентификатор кодека : V_MPEG4/ISO/AVC
Продолжительность : 1 ч. 2 м.
Битрейт : 1786 Кбит/сек
Ширина : 716 пикселей
Высота : 574 пикселя
Соотношение сторон : 4:3
Соотношение сторон в оригинале : 4:3
Режим частоты кадров : Постоянный
Частота кадров : 25,000 кадров/сек
Цветовое пространство : YUV
Субдискретизация насыщенности : 4:2:0
Битовая глубина : 8 бит
Тип развёртки : Прогрессивная
Бит/(Пиксели*Кадры) : 0.174
Размер потока : 802 Мбайт (88%)
Библиотека кодирования : x264 core 152 r2851kMod ba24899
Настройки программы : cabac=1 / ref=15 / deblock=1:-2:-2 / analyse=0x3:0x133 / me=umh / subme=10 / psy=1 / fade_compensate=0.00 / psy_rd=1.05:0.10 / mixed_ref=1 / me_range=40 / chroma_me=1 / trellis=2 / 8x8dct=1 / cqm=0 / deadzone=21,11 / fast_pskip=1 / chroma_qp_offset=-3 / threads=12 / lookahead_threads=3 / sliced_threads=0 / nr=0 / decimate=1 / interlaced=0 / bluray_compat=0 / constrained_intra=0 / bframes=12 / b_pyramid=2 / b_adapt=2 / b_bias=0 / direct=1 / weightb=1 / open_gop=0 / weightp=2 / keyint=250 / keyint_min=25 / scenecut=40 / intra_refresh=0 / rc=crf / mbtree=0 / crf=18.0000 / qcomp=0.63 / qpmin=0 / qpmax=39 / qpstep=4 / ip_ratio=1.40 / pb_ratio=1.30 / aq=1:1.00
Язык : English
Default : Да
Forced : Нет
Цветовой диапазон : Limited
Основные цвета : BT.601 PAL
Характеристики трансфера : BT.470 System B, BT.470 System G
Коэффициенты матрицы : BT.601

Аудио
Идентификатор : 2
Формат : AC-3
Формат/Информация : Audio Coding 3
Параметр Endianness формата : Big
Идентификатор кодека : A_AC3
Продолжительность : 1 ч. 2 м.
Вид битрейта : Постоянный
Битрейт : 192 Кбит/сек
Каналы : 2 канала
Расположение каналов : Front: L R
Частота : 48,0 КГц
Частота кадров : 31,250 кадров/сек (1536 SPF)
Битовая глубина : 16 бит
Метод сжатия : С потерями
Размер потока : 86,3 Мбайт (10%)
Язык : Russian
Default : Да
Forced : Нет

Меню
00:00:00.000 : en:Chapter 1
00:01:20.160 : en:Chapter 2
00:09:04.160 : en:Chapter 3
00:21:02.480 : en:Chapter 4
00:33:02.240 : en:Chapter 5
00:41:31.080 : en:Chapter 6
00:48:27.840 : en:Chapter 7
01:02:26.880 : en:Chapter 8
 

Вложения

  • 18,7 KB Просмотры: 1
    Личеров 0
    Сидеров 0
    Файлов 1
    Объем 906,8 MB
Ваш e-mail не будет опубликован. Он потребуется для подтверждения Вашего поста.
Оформление текста Нажмите «Ввод», чтобы отправить ответ.

Привет!

Мы группа людей которые решили помочь другим в решении их проблем, а так же пользователям с поиском самых свежих и качественных инфопродуктов. За 4 с небольшим месяца мы создали этот форум на который заходят ежедневно тысячи человек и посещаемость постоянно растёт. Мы создали панель лицензирования для защиты PHP скриптов от воровства и SEO панель для мониторинга наших сайтов и выбора верной стратегии их развития. Мы надеемся что то что мы создали пригодится Вам и возможно Вы поможете нам развиваться и совершенствоваться вместе с Вами.

Статистика форума

Темы
378.774
Сообщения
418.193
Пользователи
49.930
Новый пользователь
vipinvestor

Приложения форума для iOS и Android


У ркн там нет власти ;)
Приватные разговоры
Помощь Пользователи
    Вы не присоединились ни к одной комнате.