За последнюю неделю опубликовано 82 новых материалов.
Инструкция новичку Путеводитель по форуму Прокси для Telegram Показать подсказки , это бомба!

Скачать Мечтая об Аргентине / Imagining Argentina (2003) WEB-DL 1080p | P бесплатно через торрент

  • Поучаствуй (в качестве покупателя) в любых пяти совместных покупках (кроме завершённых и "Моментальных") и получи группу "Новичок" навсегда -> ссылка на раздел
  • Получай до 480 рублей за каждого приглашенного пользователя!
    представляем Вам очередное расширение партнерской программы, подробности описаны тут -> ссылка
  • 90% материалов доступно к скачиванию после простой регистрации!
    Если же ты хочешь скачивать материалы без требования оставлять отзывы то получи группу "Новичок", 10 способов повышения описаны тут -> ссылка
  • К сожалению количество битых ссылок растет и мы уже не можем их оперативно восстанавливать поэтому просим помощи у каждого нашего пользователя.
    С сегодняшнего дня, за каждую восстановленную ссылку мы заплатим Вам.
    Подробнее тут -> ссылка
  • Перенесем твои заслуги с другого ресурса!
    Мы понимаем как сложно прокачивать аккаунты на форумах, вроде раскачал аккаунт, а тут появляется ресурс в 100 раз круче но тоже с системой прокачки и снова качать аккаунт...
    Предлагаем вам перенести Ваши заслуги на другом подобном ресурсе к нам.
    Подробности описаны тут -> ссылка
  • Вы можете получать по 2.5% с каждой покупки и продажи на маркете! Подробности в теме Партнёрская программа
Если Вы не хотите скачивать, Вы всегда можетепосмотретьонлайн, просто нажмите кнопку ниже :

Открыть плеер

Torrent_Bot

Торрент-Бот
Бот форума
4 Окт 2016
104
152
20



Информация о фильме
Название: Мечтая об Аргентине
Оригинальное название: Imagining Argentina
Год выхода: 2003
Жанр: Драма, мелодрама
Режиссер: Кристофер Хэмптон
В ролях: Антонио Бандерас, Эмма Томпсон, Ирен Эсколар, Фернандо Тилве, Гектор Бордони, Мария Кэнелс-Баррера, Рубен Бладес, Летисия Долера, Энтони Диаз-Перез, Луис Рамос

О фильме:
История мужества и храбрости режиссера детского театра. История о том, на что способен пойти человек, потерявший любимую женщину. 1976 год, Буэнос-Айрес.
Сесилия, любящая жена и мать, попадает в секретную тюрьму за свою неблагодарную работу: она преданный своей работе журналист и пытается расследовать дело государственного масштаба. Теперь Карлос должен во что бы то ни стало спасти ее, пока не слишком поздно…



Страна: Испания, Великобритания, США
Студия: Mike's Movies, Myriad Pictures, Tide Rock Entertainment
Продолжительность: 01:48:01
Перевод: Профессиональный (многоголосый) | R5

Файл
Кодек: H.264
Качество: WEB-DL 1080p | AMAZON
Видео: 1920x1040, 10000 kbps, 23.976 fps
Аудио 1: Russian: 48.0 KHz, AC3, 2 ch, 192 Kbps
Аудио 2: English: 48.0 KHz, EAC3, 6 ch, 640 Kbps
Субтитры: English (SDH)

MediaInfo
General
Unique ID : 255472216398852419850153099904073999505 (0xC03228BE320A62F6D13B657CE3622491)
Complete name : Imagining.Argentina.2003.1080p.AMZN.WEB-DL.DDP5.1.kokicha.mkv
Format : Matroska
Format version : Version 4
File size : 8.09 GiB
Duration : 1 h 48 min
Overall bit rate : 10.7 Mb/s
Movie name : Imagining Argentina by kokicha
Encoded date : UTC 2020-03-04 11:33:31
Writing application : mkvmerge v26.0.0 ('In The Game') 64-bit
Writing library : libebml v1.3.6 + libmatroska v1.4.9

Video
ID : 1
Format : AVC
Format/Info : Advanced Video Codec
Format profile : High@L4
Format settings : CABAC / 4 Ref Frames
Format settings, CABAC : Yes
Format settings, Reference frames : 4 frames
Codec ID : V_MPEG4/ISO/AVC
Duration : 1 h 48 min
Bit rate mode : Constant
Bit rate : 10 000 kb/s
Width : 1 920 pixels
Height : 1 040 pixels
Display aspect ratio : 1.85:1
Frame rate mode : Constant
Frame rate : 23.976 (24000/1001) FPS
Color space : YUV
Chroma subsampling : 4:2:0
Bit depth : 8 bits
Scan type : Progressive
Bits/(Pixel*Frame) : 0.209
Stream size : 7.46 GiB (92%)
Title : by kokicha
Language : English
Default : Yes
Forced : No
Color range : Limited
Color primaries : BT.709
Transfer characteristics : BT.709
Matrix coefficients : BT.709

Audio #1
ID : 2
Format : AC-3
Format/Info : Audio Coding 3
Commercial name : Dolby Digital
Codec ID : A_AC3
Duration : 1 h 48 min
Bit rate mode : Constant
Bit rate : 192 kb/s
Channel(s) : 2 channels
Channel layout : L R
Sampling rate : 48.0 kHz
Frame rate : 31.250 FPS (1536 SPF)
Compression mode : Lossy
Stream size : 148 MiB (2%)
Language : Russian
Service kind : Complete Main
Default : Yes
Forced : No

Audio #2
ID : 3
Format : E-AC-3
Format/Info : Enhanced AC-3
Commercial name : Dolby Digital Plus
Codec ID : A_EAC3
Duration : 1 h 48 min
Bit rate mode : Constant
Bit rate : 640 kb/s
Channel(s) : 6 channels
Channel layout : L R C LFE Ls Rs
Sampling rate : 48.0 kHz
Frame rate : 31.250 FPS (1536 SPF)
Compression mode : Lossy
Delay relative to video : 30 ms
Stream size : 494 MiB (6%)
Language : English
Service kind : Complete Main
Default : No
Forced : No

Text
ID : 4
Format : UTF-8
Codec ID : S_TEXT/UTF8
Codec ID/Info : UTF-8 Plain Text
Duration : 1 h 43 min
Bit rate : 37 b/s
Count of elements : 1062
Stream size : 28.5 KiB (0%)
Title : SDH
Language : English
Default : No
Forced : No
Скриншоты

 

Вложения

  • 21,1 KB Просмотры: 0
    Личеров 0
    Сидеров 0
    Файлов 1
    Объем 8,1 GB

Привет!

Мы группа людей которые решили помочь другим в решении их проблем, а так же пользователям с поиском самых свежих и качественных инфопродуктов. За 4 с небольшим месяца мы создали этот форум на который заходят ежедневно тысячи человек и посещаемость постоянно растёт. Мы создали панель лицензирования для защиты PHP скриптов от воровства и SEO панель для мониторинга наших сайтов и выбора верной стратегии их развития. Мы надеемся что то что мы создали пригодится Вам и возможно Вы поможете нам развиваться и совершенствоваться вместе с Вами.

Статистика форума

Темы
404.531
Сообщения
461.403
Пользователи
80.030
Новый пользователь
sham945

Приложения форума для iOS и Android


У ркн там нет власти ;)
Приватные разговоры
Помощь Пользователи
    Вы не присоединились ни к одной комнате.