За последнюю неделю опубликовано 7 новых материалов.
Инструкция новичку Путеводитель по форуму Прокси для Telegram Показать подсказки , это бомба!

Скачать Меч правды / Shuranosuke Zanmaken: Shikamamon no Otoko (1990) DVDRip от Deadmauvlad | L | AniDub бесплатно через торрент

  • Поучаствуй (в качестве покупателя) в любых пяти совместных покупках (кроме завершённых и "Моментальных") и получи группу "Новичок" навсегда -> ссылка на раздел
  • Получай до 480 рублей за каждого приглашенного пользователя!
    представляем Вам очередное расширение партнерской программы, подробности описаны тут -> ссылка
  • 90% материалов доступно к скачиванию после простой регистрации!
    Если же ты хочешь скачивать материалы без требования оставлять отзывы то получи группу "Новичок", 10 способов повышения описаны тут -> ссылка
  • К сожалению количество битых ссылок растет и мы уже не можем их оперативно восстанавливать поэтому просим помощи у каждого нашего пользователя.
    С сегодняшнего дня, за каждую восстановленную ссылку мы заплатим Вам.
    Подробнее тут -> ссылка
  • Перенесем твои заслуги с другого ресурса!
    Мы понимаем как сложно прокачивать аккаунты на форумах, вроде раскачал аккаунт, а тут появляется ресурс в 100 раз круче но тоже с системой прокачки и снова качать аккаунт...
    Предлагаем вам перенести Ваши заслуги на другом подобном ресурсе к нам.
    Подробности описаны тут -> ссылка
  • Вы можете получать по 2.5% с каждой покупки и продажи на маркете! Подробности в теме Партнёрская программа

Torrent_Bot

Торрент-Бот
Бот форума
4 Окт 2016
122
124
20


Информация о фильме
Название: Меч правды
Оригинальное название: Shuranosuke Zanmaken: Shikamamon no Otoko / Sword For Truth
Год выхода: 1990
Жанр: Эротика, Самурайский Боевик
Режиссер: Осаму Дэдзаки
В ролях: Кадзухико Иноуэ, Рэй Сакума, Тэссё Гэнда, Юко Мидзутани, Гиндзо Мацуо, Кадзухико Кисино, Масаси Хиросэ, Масаси Сугавара, Минору Инаба, Миюки Итидзё


О фильме: Действие «Меча правды» датировано с предельной точностью – 32 год от начала правления сёгуната Токугава, т.е. вторая четверть XVII века (сразу оговорюсь: ЗАЧЕМ это сделано, неясно, т.к. там нет никаких специальных событий, которые требовали бы связи с определенным временным периодом или каким-то конкретным лицом). Дальше, на фоне войны с христианами (про нее, впрочем, авторы тотчас забывают), появления белого тигра-людоеда противоестественных размеров и похищения наследницы одного из знатных семейств, эффектно возникает человек в лиловом кимоно с гербом из скрещенных кос. Он стремительно сражает неуязвимого тигра, отзывается на имя Сюраноскэ Сакаки и, немного поторговавшись, изъявляет готовность ехать за девицей.
Что может привлечь в «Мече...»? Сам меч и фонтаны проливаемой им крови. С немного старомодной живописностью отсекаются руки, ноги; противники успевают, как водится, похвалить стильный удар до того, как отвалится отрубленная голова… Ещё – имеет место довольно дотошно выписанная эротика (к самураю пришла роскошно татуированная воровка). Буквально «детям до...» (не хентай, конечно, но стремится). Ещё? фонари, плывущие по туманной реке, и приятное предощущение близкого демона. Ещё? Н-ну... Наличие лишних 49 минут.






Перевод: Любительский многоголосый Azazel, Berserk, Lelik_time (AniDub)
Страна: Япония
Студия: Toei Animation
Продолжительность: 00:51:03

Возрастное ограничение: Запрещено для детей

Присутствуют сцены легкой эротики !!!

Файл
Формат: AVI
Кодек: XviD
Качество: DVDRip
Видео 720x528 (4:3), 25.000 fps, 1363 Кбит/сек (0.143 bit/pixel)
Аудио №1: AC-3, 48,0 КГц, 2 ch, 192 Кбит/сек, CBR | | AniDub
Аудио №2: AC-3, 48,0 КГц, 2 ch, 192 /сек, CBR | | Japan (Оригинал)



MediaInfo
Общее
Полное имя : [Deadmau-RAWS] Shuranosuke.Zanmaken.1990.DVDRip.700.MB.Deadmauvlad.Rus.Jap.avi
Формат : AVI
Формат/Информация : Audio Video Interleave
Размер файла : 643 Мбайт
Продолжительность : 51 м. 3 с.
Общий поток : 1761 Кбит/сек
Название фильма : [Deadmau-RAWS] Shuranosuke.Zanmaken.1990.DVDRip.Deadmauvlad.Rus.Jap
Режиссёр : EncoDeR by Deadmauvlad
Жанр : Эротика, боевик
Программа кодирования : VirtualDubMod 1.5.10.3 | www.virtualdub-fr.org || (build 2550/release)
Формат оригинала/Имя : Аниме
Авторское право : EncoDeR by Deadmauvlad
Примечание : EncoDeR by Deadmauvlad

Видео
Идентификатор : 0
Формат : MPEG-4 Visual
Профиль формата : Advanced [email protected]
Настройки формата : BVOP1 / Custom Matrix
Параметр BVOP формата : 1
Параметр QPel формата : Нет
Параметр GMC формата : Без точки перехода
Параметр матрицы формата : Выборочная
Идентификатор кодека : XVID
Идентификатор кодека/Подсказка : XviD
Продолжительность : 51 м. 3 с.
Битрейт : 1363 Кбит/сек
Ширина : 720 пикселей
Высота : 528 пикселей
Соотношение сторон : 4:3
Частота кадров : 25,000 кадров/сек
Цветовое пространство : YUV
Субдискретизация насыщенности : 4:2:0
Битовая глубина : 8 бит
Тип развёртки : Прогрессивная
Метод сжатия : С потерями
Бит/(Пиксели*Кадры) : 0.143
Размер потока : 498 Мбайт (77%)
Библиотека кодирования : XviD 73

Аудио #1
Идентификатор : 1
Формат : AC-3
Формат/Информация : Audio Coding 3
Коммерческое название : Dolby Digital
Идентификатор кодека : 2000
Продолжительность : 51 м. 3 с.
Вид битрейта : Постоянный
Битрейт : 192 Кбит/сек
Каналы : 2 канала
Channel layout : L R
Частота : 48,0 КГц
Частота кадров : 31,250 кадров/сек (1536 SPF)
Битовая глубина : 16 бит
Метод сжатия : С потерями
Размер потока : 70,1 Мбайт (11%)
Выравнивание : Разделение по промежуткам
Продолжительность промежутка : 40 мс. (1,00 видеокадр)
Время предзагрузки промежутка : 500 мс.

Аудио #2
Идентификатор : 2
Формат : AC-3
Формат/Информация : Audio Coding 3
Коммерческое название : Dolby Digital
Идентификатор кодека : 2000
Продолжительность : 51 м. 3 с.
Вид битрейта : Постоянный
Битрейт : 192 Кбит/сек
Каналы : 2 канала
Channel layout : L R
Частота : 48,0 КГц
Частота кадров : 31,250 кадров/сек (1536 SPF)
Битовая глубина : 16 бит
Метод сжатия : С потерями
Размер потока : 70,1 Мбайт (11%)
Выравнивание : Разделение по промежуткам
Продолжительность промежутка : 40 мс. (1,00 видеокадр)
Время предзагрузки промежутка : 500 мс.
Скриншоты

Резервные


Релиз / Автор рипа: >Deadmauvlad <


 

Вложения

  • 1,7 KB Просмотры: 0
    Личеров 0
    Сидеров 0
    Файлов 1
    Объем 643,1 MB

Привет!

Мы группа людей которые решили помочь другим в решении их проблем, а так же пользователям с поиском самых свежих и качественных инфопродуктов. За 4 с небольшим месяца мы создали этот форум на который заходят ежедневно тысячи человек и посещаемость постоянно растёт. Мы создали панель лицензирования для защиты PHP скриптов от воровства и SEO панель для мониторинга наших сайтов и выбора верной стратегии их развития. Мы надеемся что то что мы создали пригодится Вам и возможно Вы поможете нам развиваться и совершенствоваться вместе с Вами.

Статистика форума

Темы
385.323
Сообщения
431.803
Пользователи
65.756
Новый пользователь
Семечка

Приложения форума для iOS и Android


У ркн там нет власти ;)
Приватные разговоры
Помощь Пользователи
    Вы не присоединились ни к одной комнате.