За последнюю неделю опубликовано 99 новых материалов.
Инструкция новичку Путеводитель по форуму Прокси для Telegram Показать подсказки , это бомба!

Скачать Меч [01-25 из 25] (2009) SATRip-AVC от Korsar бесплатно через торрент

  • Поучаствуй (в качестве покупателя) в любых пяти совместных покупках (кроме завершённых и "Моментальных") и получи группу "Новичок" навсегда -> ссылка на раздел
  • Получай до 480 рублей за каждого приглашенного пользователя!
    представляем Вам очередное расширение партнерской программы, подробности описаны тут -> ссылка
  • 90% материалов доступно к скачиванию после простой регистрации!
    Если же ты хочешь скачивать материалы без требования оставлять отзывы то получи группу "Новичок", 10 способов повышения описаны тут -> ссылка
  • К сожалению количество битых ссылок растет и мы уже не можем их оперативно восстанавливать поэтому просим помощи у каждого нашего пользователя.
    С сегодняшнего дня, за каждую восстановленную ссылку мы заплатим Вам.
    Подробнее тут -> ссылка
  • Перенесем твои заслуги с другого ресурса!
    Мы понимаем как сложно прокачивать аккаунты на форумах, вроде раскачал аккаунт, а тут появляется ресурс в 100 раз круче но тоже с системой прокачки и снова качать аккаунт...
    Предлагаем вам перенести Ваши заслуги на другом подобном ресурсе к нам.
    Подробности описаны тут -> ссылка
  • Вы можете получать по 2.5% с каждой покупки и продажи на маркете! Подробности в теме Партнёрская программа
Если Вы не хотите скачивать, Вы всегда можетепосмотретьонлайн, просто нажмите кнопку ниже :

Открыть плеер

Torrent_Bot

Торрент-Бот
Бот форума
4 Окт 2016
102
152
20
Информация о фильме
Название: Меч
Год выхода: 2009
Жанр: боевик, криминал
Режиссер: Рустам Уразаев, Виктор Конисевич

В ролях: Эдуард Флёров, Роман Курцын, Тимур Ефременков, Дарья Повереннова, Виктория Фишер, Александр Баринов, Нина Гогаева, Владислав Павлов, Александр Фисенко, Шухрат Иргашев, Сергей Фишер, Дмитрий Миронов , Геннадий Подшивалов, Наталья Коновалова, Игорь Карлов, Дмитрий Антимонов, Александр Горохов , Александр Воробьёв , Анастасия Тюфякина, Дмитрий Родионов , Никита Новиков, Яна Белугина, Александр Зельский, Дмитрий Белогуров, Илья Кремнёв, Сергей Холмогоров, Марина Налетова, Павел Фалов, Дмитрий Ефремов, Магомед Аваданский

О фильме:
Наши дни. Москва. Ситуация в стране стабилизируется и улучшается, но растущие мегаполисы выходят из-под контроля милиции. Уровень преступности растет в геометрической прогрессии… Макс Калинин бывший офицер разведки ВДВ, оперативник УБОП. После 10 лет работы его по фиктивному обвинению увольняют со службы, без права в дальнейшем работать в органах правопорядка. На деле Макс просто не согласился отпустить преступника, за которого кто-то из его руководства получил большую взятку. После его увольнения, дело разваливают и опасный преступник выходит даже без предъявления обвинения. Это не ломает Калинина, а взрывает изнутри, обостряя его жесткий характер. Проследив за отпущенным на свободу преступником, Калинин в тот же вечер вершит собственное правосудие, убивая его. С этого дня Калинин понимает, чем он будет заниматься, - он будет бороться с беззаконием своими методами. И наказание будет только одно – смерть. Калинин собирает команду из таких же как и он, осторожно выискивая их по одному. Команда разрастается, включая и некоторых действующих сотрудников различных структур, от ГАИ и ППС до прокуратуры и суда. Преступные деньги, которыми удается завладеть, бойцы оставляют себе и постепенно маленькая команда, превращается в опасную карательную организацию, которой бояться все. Они выбирают своим знаком меч, в отличие от прочих эмблем госслужб, безо всякого щита или весов, - они только карают. На улицах города разворачивается настоящая война. «Меч» находится между двух зол – криминального мира, который объявляет огромные деньги за их «головы» и своих бывших коллег, которые начинают охоту на «оборотней».


Страна: Россия,Компания «DIXI-TV»
Продолжительность: ~ 00:47:00
Язык: Русский

Файл
Качество: SATRip-AVC
Видео: MPEG-4 AVC, ~ 1550 Кбит/с, 720x400
Звук: AC3, 2 ch, 192 Кбит/с


b198b941ac7d8021440408be1d08b47b.pngbb675281449b165b882bd8cf141c3a1a.gif


Релиз от:0f531005a8a1dbbb1bf9a0cbe7ec32a5.png

Медианфо
Общее
Уникальный идентификатор : 193883104484820195090913881098259147360 (0x91DC8714F9AC3C74AD59CCEC15B62A60)
Полное имя : D:Меч4 серия_Меч_rip by_Aleksan55.mkv
Формат : Matroska
Версия формата : Version 2
Размер файла : 599 Мбайт
Продолжительность : 48 м. 2 с.
Общий поток : 1744 Кбит/сек
Дата кодирования : UTC 2017-01-25 05:01:12
Программа кодирования : mkvmerge v7.8.0 ('River Man') 32bit built on Apr 3 2015 12:11:22
Библиотека кодирования : libebml v1.3.1 + libmatroska v1.4.2

Видео
Идентификатор : 1
Формат : AVC
Формат/Информация : Advanced Video Codec
Профиль формата : High@L4.1
Параметр CABAC формата : Да
Параметр ReFrames формата : 14 кадров
Идентификатор кодека : V_MPEG4/ISO/AVC
Продолжительность : 48 м. 2 с.
Битрейт : 1550 Кбит/сек
Ширина : 720 пикселей
Высота : 400 пикселей
Соотношение сторон : 16:9
Режим частоты кадров : Постоянный
Частота кадров : 25,000 кадров/сек
Цветовое пространство : YUV
Субдискретизация насыщенности : 4:2:0
Битовая глубина : 8 бит
Тип развёртки : Прогрессивная
Бит/(Пиксели*Кадры) : 0.215
Размер потока : 521 Мбайт (87%)
Библиотека кодирования : x264 core 148 r2638 7599210
Настройки программы : cabac=1 / ref=14 / deblock=1:-1:-1 / analyse=0x3:0x133 / me=umh / subme=9 / psy=1 / psy_rd=1.00:0.15 / mixed_ref=0 / me_range=32 / chroma_me=1 / trellis=2 / 8x8dct=1 / cqm=0 / deadzone=21,11 / fast_pskip=0 / chroma_qp_offset=-3 / threads=3 / lookahead_threads=3 / sliced_threads=0 / nr=0 / decimate=0 / interlaced=0 / bluray_compat=0 / constrained_intra=0 / bframes=14 / b_pyramid=2 / b_adapt=1 / b_bias=0 / direct=3 / weightb=1 / open_gop=0 / weightp=2 / keyint=250 / keyint_min=25 / scenecut=40 / intra_refresh=0 / rc_lookahead=40 / rc=2pass / mbtree=1 / bitrate=1550 / ratetol=1.0 / qcomp=0.80 / qpmin=0 / qpmax=39 / qpstep=4 / cplxblur=20.0 / qblur=0.5 / ip_ratio=1.10 / aq=1:1.20
Default : Да
Forced : Нет
Цветовой диапазон : Limited
Основные цвета : BT.601 PAL
Характеристики трансфера : BT.470 System B, BT.470 System G
Коэффициенты матрицы : BT.601

Аудио
Идентификатор : 2
Формат : AC-3
Формат/Информация : Audio Coding 3
Расширение режима : CM (complete main)
Параметр Endianness формата : Big
Идентификатор кодека : A_AC3
Продолжительность : 48 м. 2 с.
Вид битрейта : Постоянный
Битрейт : 192 Кбит/сек
Каналы : 2 канала
Расположение каналов : Front: L R
Частота : 48,0 КГц
Частота кадров : 31,250 кадров/сек (1536 spf)
Битовая глубина : 16 бит
Метод сжатия : С потерями
Размер потока : 66,0 Мбайт (11%)
Default : Да
Forced : Нет
Скриншоты
2d559773cf7fd6d9e05c72df0fd00826.jpge7217efb101025362afead6c264ae863.jpgedee076c3b9681f2b5fbf574d7798afd.jpg5db7db6d2b5db0b6729b8f3f9b042011.jpg389afa996cfe64a808bda16b75535c16.jpg9eeb6eb1a47f2b4b798b44ea11ccd407.jpg
 

Вложения

  • 74,7 KB Просмотры: 1
    Личеров 0
    Сидеров 0
    Файлов 25
    Объем 14,4 GB

Привет!

Мы группа людей которые решили помочь другим в решении их проблем, а так же пользователям с поиском самых свежих и качественных инфопродуктов. За 4 с небольшим месяца мы создали этот форум на который заходят ежедневно тысячи человек и посещаемость постоянно растёт. Мы создали панель лицензирования для защиты PHP скриптов от воровства и SEO панель для мониторинга наших сайтов и выбора верной стратегии их развития. Мы надеемся что то что мы создали пригодится Вам и возможно Вы поможете нам развиваться и совершенствоваться вместе с Вами.

Статистика форума

Темы
404.586
Сообщения
461.446
Пользователи
80.250
Новый пользователь
mrrh

Приложения форума для iOS и Android


У ркн там нет власти ;)
Приватные разговоры
Помощь Пользователи
    Вы не присоединились ни к одной комнате.