За последнюю неделю опубликовано 99 новых материалов.
Инструкция новичку Путеводитель по форуму Прокси для Telegram Показать подсказки , это бомба!

Скачать Меч [01-25 из 25] (2009) DVDRip-AVC бесплатно через торрент

  • Поучаствуй (в качестве покупателя) в любых пяти совместных покупках (кроме завершённых и "Моментальных") и получи группу "Новичок" навсегда -> ссылка на раздел
  • Получай до 480 рублей за каждого приглашенного пользователя!
    представляем Вам очередное расширение партнерской программы, подробности описаны тут -> ссылка
  • 90% материалов доступно к скачиванию после простой регистрации!
    Если же ты хочешь скачивать материалы без требования оставлять отзывы то получи группу "Новичок", 10 способов повышения описаны тут -> ссылка
  • К сожалению количество битых ссылок растет и мы уже не можем их оперативно восстанавливать поэтому просим помощи у каждого нашего пользователя.
    С сегодняшнего дня, за каждую восстановленную ссылку мы заплатим Вам.
    Подробнее тут -> ссылка
  • Перенесем твои заслуги с другого ресурса!
    Мы понимаем как сложно прокачивать аккаунты на форумах, вроде раскачал аккаунт, а тут появляется ресурс в 100 раз круче но тоже с системой прокачки и снова качать аккаунт...
    Предлагаем вам перенести Ваши заслуги на другом подобном ресурсе к нам.
    Подробности описаны тут -> ссылка
  • Вы можете получать по 2.5% с каждой покупки и продажи на маркете! Подробности в теме Партнёрская программа
Если Вы не хотите скачивать, Вы всегда можетепосмотретьонлайн, просто нажмите кнопку ниже :

Открыть плеер

Torrent_Bot

Торрент-Бот
Бот форума
4 Окт 2016
102
152
20



Название: Меч
Год выпуска: 2009
Жанр: Боевик, драма, криминал
Выпущено: Россия / DIXI-TV

Режиссер: Рустам Уразаев, Виктор Конисевич
В ролях: Эдуард Флёров, Роман Курцын, Тимур Ефременков, Дарья Повереннова, Виктория Фишер, Александр Баринов, Нина Гогаева, Владислав Павлов, Александр Фисенко, Шухрат Иргашев, Сергей Фишер, Дмитрий Миронов, Геннадий Подшивалов, Наталья Коновалова, Игорь Карлов, Дмитрий Антимонов, Александр Горохов (II), Александр Воробьёв (II), Анастасия Тюфякина, Дмитрий Родионов (II), Никита Новиков, Яна Белугина, Александр Зельский, Дмитрий Белогуров, Илья Кремнев, Сергей Холмогоров, Марина Налетова, Павел Фалов, Ольга Жилова, Дмитрий Ефремов, Магомед Аваданский, Ангелина Ноздрина, Сергей Болотаев, Адам Булгучев, Григорий Меликбекян, Дмитрий Чибизов, Сергей Колокольцев

Описание:
Наши дни. Москва. Растущий мегаполис выходит из-под контроля милиции. Уровень преступности растет в геометрической прогрессии. Макс Калинин бывший офицер разведки ВДВ, оперативник УБОП. По фиктивному обвинению его увольняют со службы. На деле Макс просто не согласился отпустить преступника, за которого кто-то из его руководства получил большую взятку. Калинин принимает непростое решение, он будет бороться с беззаконием своими методами. Макс собирает маленькую команду единомышленников. Команда разрастается и постепенно превращается в опасную и жестокую карательную организацию, которой боятся все. Они выбирают своим знаком меч, так же их называют и журналисты. На улицах города разворачивается настоящая война. «Меч» находится между двух зол — криминального мира, который объявляет огромные деньги за их «головы» и своих бывших коллег, которые начинают охоту на «оборотней».

bb675281449b165b882bd8cf141c3a1a.gif

Качество: DVDRip-AVC
Видео: MPEG-4 AVC, ~1400 Кбит/с, 720x400, 25.000 кадр/с
Аудио:AC3, 2 ch, 192 Кбит/с
Продолжительность: 25 x ~ 00:48:00



Содержание
01. Приговор
02. Нас будут бояться
03. Готовься к войне
04. Высший закон
05. Первый удар
06. Охота
07. В ловушке
08. Террор
09. Пленных не брать
10. Месть
11. Найти любой ценой
12. Гидра
13. Маскарад
14. Единственный выход
15. Прятки
16. Ловкач
17. Дуэль
18. На дороге
19. Бой
20. Война
21. Переворот
22. Манифест
23. Суд
24. Нокдаун
25. Победа или смерть
M/I
General
Unique ID : 263154949562576747179466087837275336979 (0xC5F9CCBB9AED55FE9D936F9C9EB93113)
Complete name : F:СериалыМеч [25] (2009) DVDRip-AVCMech.(14.seriya.iz.25).2009.DVDRIP_AVC.[-=DoMiNo=-].mkv
Format : Matroska
Format version : Version 4 / Version 2
File size : 564 MiB
Duration : 47mn 51s
Overall bit rate : 1 647 Kbps
Writing application : Lavf56.1.100
Writing library : Lavf56.1.100
ENCODING_INFO : MATROSKA,WEBM > MKV / MPEG2 > X264 CRF 18,0 Custom / AC3 > COPY

Video
ID : 1
Format : AVC
Format/Info : Advanced Video Codec
Format profile : High@L4.1
Format settings, CABAC : Yes
Format settings, ReFrames : 12 frames
Codec ID : V_MPEG4/ISO/AVC
Duration : 47mn 51s
Bit rate : 1 422 Kbps
Width : 720 pixels
Height : 400 pixels
Display aspect ratio : 16:9
Frame rate mode : Constant
Frame rate : 25.000 fps
Color space : YUV
Chroma subsampling : 4:2:0
Bit depth : 8 bits
Scan type : Progressive
Bits/(Pixel*Frame) : 0.198
Stream size : 487 MiB (86%)
Default : Yes
Forced : No

Audio
ID : 2
Format : AC-3
Format/Info : Audio Coding 3
Mode extension : CM (complete main)
Format settings, Endianness : Big
Codec ID : A_AC3
Duration : 47mn 51s
Bit rate mode : Constant
Bit rate : 192 Kbps
Channel(s) : 2 channels
Channel positions : Front: L R
Sampling rate : 48.0 KHz
Bit depth : 32 bits
Compression mode : Lossy
Stream size : 65.7 MiB (12%)
Default : Yes
Forced : No

 

Вложения

  • 37,6 KB Просмотры: 1
    Личеров 0
    Сидеров 0
    Файлов 25
    Объем 13,8 GB

Привет!

Мы группа людей которые решили помочь другим в решении их проблем, а так же пользователям с поиском самых свежих и качественных инфопродуктов. За 4 с небольшим месяца мы создали этот форум на который заходят ежедневно тысячи человек и посещаемость постоянно растёт. Мы создали панель лицензирования для защиты PHP скриптов от воровства и SEO панель для мониторинга наших сайтов и выбора верной стратегии их развития. Мы надеемся что то что мы создали пригодится Вам и возможно Вы поможете нам развиваться и совершенствоваться вместе с Вами.

Статистика форума

Темы
404.586
Сообщения
461.446
Пользователи
80.250
Новый пользователь
mrrh

Приложения форума для iOS и Android


У ркн там нет власти ;)
Приватные разговоры
Помощь Пользователи
    Вы не присоединились ни к одной комнате.