За последнюю неделю опубликовано 20 новых материалов.
Инструкция новичку Путеводитель по форуму Прокси для Telegram Показать подсказки , это бомба!

Скачать Матадор / The Matador (2005) HDRip-AVC | D, P2 бесплатно через торрент

  • Поучаствуй (в качестве покупателя) в любых пяти совместных покупках (кроме завершённых и "Моментальных") и получи группу "Новичок" навсегда -> ссылка на раздел
  • Получай до 480 рублей за каждого приглашенного пользователя!
    представляем Вам очередное расширение партнерской программы, подробности описаны тут -> ссылка
  • 90% материалов доступно к скачиванию после простой регистрации!
    Если же ты хочешь скачивать материалы без требования оставлять отзывы то получи группу "Новичок", 10 способов повышения описаны тут -> ссылка
  • К сожалению количество битых ссылок растет и мы уже не можем их оперативно восстанавливать поэтому просим помощи у каждого нашего пользователя.
    С сегодняшнего дня, за каждую восстановленную ссылку мы заплатим Вам.
    Подробнее тут -> ссылка
  • Перенесем твои заслуги с другого ресурса!
    Мы понимаем как сложно прокачивать аккаунты на форумах, вроде раскачал аккаунт, а тут появляется ресурс в 100 раз круче но тоже с системой прокачки и снова качать аккаунт...
    Предлагаем вам перенести Ваши заслуги на другом подобном ресурсе к нам.
    Подробности описаны тут -> ссылка
  • Вы можете получать по 2.5% с каждой покупки и продажи на маркете! Подробности в теме Партнёрская программа
Если Вы не хотите скачивать, Вы всегда можетепосмотретьонлайн, просто нажмите кнопку ниже :

Открыть плеер

Torrent_Bot

Торрент-Бот
Бот форума
4 Окт 2016
122
116
20



Информация о фильме
Название: Матадор
Оригинальное название: The Matador
Год выхода: 2005
Жанр: Триллер, драма, комедия, криминал
Режиссер: Ричард Шепард
В ролях: Пирс Броснан, Грег Киннер, Хоуп Дэвис, Филип Бейкер Холл, Дилан Бейкер, Адам Скотт, Уильям Рэймонд, Портия Даусон, Джона Мейерсон, Роберто Соса

О фильме:
В гостиничном баре в Мехико-сити встретились двое: профессиональный убийца и крупный бизнесмен. Эта встреча абсолютно незнакомых людей круто меняет жизнь обоих. Потому что каждый может дать другому то, что ему необходимо. Убийце нужен напарник, которого никто не заподозрит, а деловому человеку — киллер, который решит его проблемы с конкурентами.



Страна: США, Германия, Ирландия
Студия: Arclight Films Pty. Ltd., DEJ Productions, Furst Films, Stratus Film Co., Irish DreamTime
Продолжительность: 01:37:45
Перевод: Дублированный + Профессиональный (двухголосый, закадровый)
Субтитры: Russian, English

Файл
Формат: Matroska
Качество: HDRip-AVC
Видео: 732x312 at 23.976 fps, x264, ~938 kbps, 0.171 bpp
Аудио #1: AAC, 2 ch, ~64 kbps - | DUB | - Лицензия R5
Аудио #2: AAC, 2 ch, ~64 kbps - | DVO | - Tycoon
Формат субтитров: softsub (SRT)

***Релиз от:-=DoMiNo=-

M/I
x264 [info]: frame I:1099 Avg QP:18.97 size: 30805
x264 [info]: frame P:31070 Avg QP:20.35 size: 11273
x264 [info]: frame B:108467 Avg QP:21.91 size: 2760
x264 [info]: consecutive B-frames: 2.4% 2.8% 8.0% 21.8% 15.8% 41.0% 3.6% 2.2% 0.6% 0.6% 0.3% 0.4% 0.8%

General
Format : Matroska
Format version : Version 4
File size : 745 MiB
Duration : 1 h 37 min
Overall bit rate : 1 065 kb/s
Movie name : Матадор.(2005).HDRip-AVC.[-=DoMiNo=-]
Encoded date : UTC 2020-01-17 13:32:47
Writing application : mkvmerge v42.0.0 ('Overtime') 64-bit
Writing library : libebml v1.3.10 + libmatroska v1.5.2
Attachments : poster.png / poster 2.jpg

Video
ID : 1
Format : AVC
Format/Info : Advanced Video Codec
Format profile : High@L4.1
Format settings : CABAC / 12 Ref Frames
Format settings, CABAC : Yes
Format settings, Reference : 12 frames
Codec ID : V_MPEG4/ISO/AVC
Duration : 1 h 37 min
Bit rate : 938 kb/s
Width : 732 pixels
Height : 312 pixels
Display aspect ratio : 2.35:1
Frame rate mode : Constant
Frame rate : 23.976 (24000/1001) FPS
Color space : YUV
Chroma subsampling : 4:2:0
Bit depth : 8 bits
Scan type : Progressive
Bits/(Pixel*Frame) : 0.171
Stream size : 656 MiB (88%)
Title : RIP_BY_-=DoMiNo=-
Writing library : x264 core 159 r2991 1771b55
Encoding settings : cabac=1 / ref=12 / deblock=1:-3:-3 / analyse=0x3:0x133 / me=umh / subme=11 / psy=1 / psy_rd=1.00:0.10 / mixed_ref=1 / me_range=32 / chroma_me=1 / trellis=2 / 8x8dct=1 / cqm=0 / deadzone=21,11 / fast_pskip=0 / chroma_qp_offset=-3 / threads=6 / lookahead_threads=1 / sliced_threads=0 / nr=0 / decimate=0 / interlaced=0 / bluray_compat=0 / constrained_intra=0 / bframes=12 / b_pyramid=2 / b_adapt=2 / b_bias=0 / direct=3 / weightb=1 / open_gop=0 / weightp=2 / keyint=250 / keyint_min=23 / scenecut=40 / intra_refresh=0 / rc=2pass / mbtree=0 / bitrate=938 / ratetol=1.0 / qcomp=0.65 / qpmin=0 / qpmax=69 / qpstep=4 / cplxblur=20.0 / qblur=0.5 / ip_ratio=1.40 / pb_ratio=1.30 / aq=1:1.00
Language : English
Default : Yes
Forced : No
Color range : Limited
Color primaries : BT.709
Transfer characteristics : BT.709
Matrix coefficients : BT.709

Audio #1
ID : 2
Format : AAC LC SBR
Format/Info : Advanced Audio Codec Low Complexity with Spectral Band Replication
Commercial name : HE-AAC
Format settings : Explicit
Codec ID : A_AAC-2
Duration : 1 h 37 min
Bit rate : 62.7 kb/s
Channel(s) : 2 channels
Channel layout : L R
Sampling rate : 48.0 kHz
Frame rate : 23.438 FPS (2048 SPF)
Compression mode : Lossy
Stream size : 43.8 MiB (6%)
Title : DUB
Language : Russian
Default : Yes
Forced : No

Audio #2
ID : 3
Format : AAC LC SBR
Format/Info : Advanced Audio Codec Low Complexity with Spectral Band Replication
Commercial name : HE-AAC
Format settings : Explicit
Codec ID : A_AAC-2
Duration : 1 h 37 min
Bit rate : 62.7 kb/s
Channel(s) : 2 channels
Channel layout : L R
Sampling rate : 48.0 kHz
Frame rate : 23.438 FPS (2048 SPF)
Compression mode : Lossy
Stream size : 43.5 MiB (6%)
Title : DVO_[Tycoon]
Language : Russian
Default : No
Forced : No

Text #1
ID : 4
Format : UTF-8
Codec ID : S_TEXT/UTF8
Codec ID/Info : UTF-8 Plain Text
Duration : 1 h 31 min
Bit rate : 72 b/s
Count of elements : 1008
Stream size : 48.7 KiB (0%)
Language : Russian
Default : No
Forced : No

Text #2
ID : 5
Format : UTF-8
Codec ID : S_TEXT/UTF8
Codec ID/Info : UTF-8 Plain Text
Duration : 1 h 31 min
Bit rate : 64 b/s
Count of elements : 1526
Stream size : 43.0 KiB (0%)
Language : English
Default : No
Forced : No

Menu
00:00:00.000 : en:00:00:00.000
00:02:43.663 : en:00:02:43.663
00:04:33.023 : en:00:04:33.023
00:06:02.696 : en:00:06:02.696
00:09:31.070 : en:00:09:31.070
00:12:48.434 : en:00:12:48.434
00:15:26.467 : en:00:15:26.467
00:17:28.214 : en:00:17:28.214
00:24:09.239 : en:00:24:09.239
00:27:45.163 : en:00:27:45.163
00:33:33.136 : en:00:33:33.136
00:39:20.775 : en:00:39:20.775
00:45:35.816 : en:00:45:35.816
00:51:07.940 : en:00:51:07.940
00:52:40.157 : en:00:52:40.157
00:55:43.382 : en:00:55:43.382
01:02:24.282 : en:01:02:24.282
01:14:08.444 : en:01:14:08.444
01:19:36.897 : en:01:19:36.897
01:24:13.715 : en:01:24:13.715
01:27:19.067 : en:01:27:19.067
01:33:33.817 : en:01:33:33.817
Скриншоты
 

Вложения

  • 15,6 KB Просмотры: 0
    Личеров 0
    Сидеров 0
    Файлов 1
    Объем 744,7 MB

Привет!

Мы группа людей которые решили помочь другим в решении их проблем, а так же пользователям с поиском самых свежих и качественных инфопродуктов. За 4 с небольшим месяца мы создали этот форум на который заходят ежедневно тысячи человек и посещаемость постоянно растёт. Мы создали панель лицензирования для защиты PHP скриптов от воровства и SEO панель для мониторинга наших сайтов и выбора верной стратегии их развития. Мы надеемся что то что мы создали пригодится Вам и возможно Вы поможете нам развиваться и совершенствоваться вместе с Вами.

Статистика форума

Темы
385.057
Сообщения
430.432
Пользователи
63.074
Новый пользователь
GoraMoras

Приложения форума для iOS и Android


У ркн там нет власти ;)
Приватные разговоры
Помощь Пользователи
    Вы не присоединились ни к одной комнате.