За последнюю неделю опубликовано 47 новых материалов.
Инструкция новичку Путеводитель по форуму Прокси для Telegram Показать подсказки , это бомба!

Скачать Мать урагана / Мацi ўрагану (1990) SATRip от AND03AND бесплатно через торрент

  • Поучаствуй (в качестве покупателя) в любых пяти совместных покупках (кроме завершённых и "Моментальных") и получи группу "Новичок" навсегда -> ссылка на раздел
  • Получай до 480 рублей за каждого приглашенного пользователя!
    представляем Вам очередное расширение партнерской программы, подробности описаны тут -> ссылка
  • 90% материалов доступно к скачиванию после простой регистрации!
    Если же ты хочешь скачивать материалы без требования оставлять отзывы то получи группу "Новичок", 10 способов повышения описаны тут -> ссылка
  • К сожалению количество битых ссылок растет и мы уже не можем их оперативно восстанавливать поэтому просим помощи у каждого нашего пользователя.
    С сегодняшнего дня, за каждую восстановленную ссылку мы заплатим Вам.
    Подробнее тут -> ссылка
  • Перенесем твои заслуги с другого ресурса!
    Мы понимаем как сложно прокачивать аккаунты на форумах, вроде раскачал аккаунт, а тут появляется ресурс в 100 раз круче но тоже с системой прокачки и снова качать аккаунт...
    Предлагаем вам перенести Ваши заслуги на другом подобном ресурсе к нам.
    Подробности описаны тут -> ссылка
  • Вы можете получать по 2.5% с каждой покупки и продажи на маркете! Подробности в теме Партнёрская программа
Если Вы не хотите скачивать, Вы всегда можетепосмотретьонлайн, просто нажмите кнопку ниже :

Открыть плеер

Torrent_Bot

Торрент-Бот
Бот форума
4 Окт 2016
90
166
20
Информация о фильме
Название: Мать урагана / Мацi ўрагану
Год выхода: 1990
Жанр: драма
Режиссер: Юрий Марухин
В ролях: Александр Гоманюк, Людмила Полякова, Александр Владомирский, Геннадий Гарбук, Анатолий Жук, Наталья Кишова, Виталий Котовицкий, Татьяна Мархель, Иван Мацкевич, Владимир Мищанчук, Геннадий Овсянников, Алесь Пузыня, Владимир Сичкарь, Виктор Тарасов, Александр Филиппенко, Евгений Шипило, Владимир Пузыня, Дмитрий Воскобойников, Станислав Вилькин, Виктор Черняков, Петра Шимонова, Иржи Крытинарж, Виктор Докучаев, Борис Лагода

О фильме:
В крестьянской усадьбе вдовы Агны Ветер - праздник: вечер перед свадьбой ее сына Василя. В суете приготовлений появляется некий Вощила - один из организаторов грядущего крестьянского восстания против бесчинств магната Радзивилла. Василь Ветер поначалу занимает миролюбивую позицию, взывая к мирским радостям и прекращению всякого кровопролития. Но в этот момент во двор беспардонно врываются сборщики налогов Радзивилла. Этот эпизод становится поводом для того, чтобы Василь поддался уговорам Вощилы возглавить восстание...
...Пылают в ночи факелы. Агна дает клятву, благословляя сына на путь святой борьбы.
По одноименной пьесе Владимира Короткевича о национально-освободительном антифеодальном восстании белорусских крестьян в XVIII веке против феодала Радзивилла и польской шляхты.

Доп. информация:
Сценарий: Владимир Голованов
Оператор: Юрий Марухин
Художник: Игорь Топилин
Композитор: Олег Янченко
Производство: "Беларусьфильм" при участии "Баррандов" (Чехословакия)
Премьера: январь 1991

Интересно:
Действие фильма разворачивается на фоне национально-освободительной борьбы белорусских крестьян против феодала Радзивилла и польской шляхты. Это было восстание, преданное на корню. Поднявшийся народ — с топорами, пиками, рогатинами — осаждал замок, но так и не смог его взять. Почти все смутьяны были князем Радзивиллом казнены. Трагическую историю бунта белорусских крестьян в XVIII веке против феодалов воссоздал на студии «Беларусьфильм» Юрий Марухин (сценарий по роману В. Короткевича написал В. Голованов). В прошлом Марухин — оператор, потому за кинокамеру и здесь решил встать сам, так что «Мать урагана» во многом авторский фильм. В съемках помогали коллеги из Чехословакии.



Благодарность:
Исходник для данной раздачи, записан с цифрового наземного канала, т.е. DVB-Т, любезно предоставлен PavelDAS.
За что ему большое спасибо!
За помощь с сведением белорусской звуковой дорожки отдельное спасибо Bartimeyse.



Страна: СССР , ЧССР
Студия: "Беларусьфильм" при участии "Баррандов" (Чехословакия)
Продолжительность: 01:37:50
Перевод: русская + белорусская, две отдельные родные звуковые дорожки

Файл
Кодек: Xvid
Качество: SATRip
Видео: Xvid 704x352, 25 fps, 1850 Kbps
Аудио 1: MP3, 48 kHz, stereo, 224 Kbps [RU]
Аудио 2: MP3, 48 kHz, stereo, 128kbps [BEL]

MediaInfo
General
Complete name : D:Новая земля 2Художественные фильмыМать Урагана_Мацi ўрагану Есть старый вариантМать Урагана_1990 AVIМать Урагана_(RU_BEL)_1990.avi
Format : AVI
Format/Info : Audio Video Interleave
File size : 1.51 GiB
Duration : 1h 37mn
Overall bit rate : 2 216 Kbps
Writing application : VirtualDubMod 1.5.10.2 (build 2540/release)
Writing library : VirtualDubMod build 2540/release

Video
ID : 0
Format : MPEG-4 Visual
Format profile : Advanced [email protected]
Format settings, BVOP : 1
Format settings, QPel : No
Format settings, GMC : No warppoints
Format settings, Matrix : Default (H.263)
Codec ID : XVID
Codec ID/Hint : XviD
Duration : 1h 37mn
Bit rate : 1 850 Kbps
Width : 704 pixels
Height : 352 pixels
Display aspect ratio : 2.000
Frame rate : 25.000 fps
Color space : YUV
Chroma subsampling : 4:2:0
Bit depth : 8 bits
Scan type : Progressive
Compression mode : Lossy
Bits/(Pixel*Frame) : 0.299
Stream size : 1.26 GiB (83%)
Writing library : XviD 1.2.1 (UTC 2008-12-04)

Audio #1
ID : 1
Format : MPEG Audio
Format version : Version 1
Format profile : Layer 3
Codec ID : 55
Codec ID/Hint : MP3
Duration : 1h 37mn
Bit rate mode : Constant
Bit rate : 224 Kbps
Channel(s) : 2 channels
Sampling rate : 48.0 KHz
Compression mode : Lossy
Stream size : 157 MiB (10%)
Alignment : Aligned on interleaves
Interleave, duration : 40 ms (1.00 video frame)
Interleave, preload duration : 504 ms
Writing library : LAME3.98r
Encoding settings : -m s -V 4 -q 2 -lowpass 19.4 -b 224-m s -V 4 -q 2 -lowpass 19.4 -b 224-m s -V 4 -q 2 -lowpass 19.4 -b 224

Audio #2
ID : 2
Format : MPEG Audio
Format version : Version 1
Format profile : Layer 3
Mode : Joint stereo
Mode extension : MS Stereo
Codec ID : 55
Codec ID/Hint : MP3
Duration : 1h 37mn
Bit rate mode : Constant
Bit rate : 128 Kbps
Channel(s) : 2 channels
Sampling rate : 48.0 KHz
Compression mode : Lossy
Stream size : 89.6 MiB (6%)
Alignment : Aligned on interleaves
Interleave, duration : 40 ms (1.00 video frame)
Interleave, preload duration : 504 ms

Скриншоты
 

Вложения

  • 17,4 KB Просмотры: 1
    Личеров 0
    Сидеров 0
    Файлов 1
    Объем 1,5 GB

Привет!

Мы группа людей которые решили помочь другим в решении их проблем, а так же пользователям с поиском самых свежих и качественных инфопродуктов. За 4 с небольшим месяца мы создали этот форум на который заходят ежедневно тысячи человек и посещаемость постоянно растёт. Мы создали панель лицензирования для защиты PHP скриптов от воровства и SEO панель для мониторинга наших сайтов и выбора верной стратегии их развития. Мы надеемся что то что мы создали пригодится Вам и возможно Вы поможете нам развиваться и совершенствоваться вместе с Вами.

Статистика форума

Темы
410.884
Сообщения
469.436
Пользователи
87.867
Новый пользователь
Yfnfkmz163

Приложения форума для iOS и Android


У ркн там нет власти ;)
Приватные разговоры
Помощь Пользователи
    Вы не присоединились ни к одной комнате.