За последнюю неделю опубликовано 62 новых материалов.
Инструкция новичку Путеводитель по форуму Прокси для Telegram Показать подсказки , это бомба!

Скачать Маска Зорро / The Mask of Zorro (1998) UHD BDRemux 2160p от селезень | 4K | HDR | Лицензия бесплатно через торрент

  • Поучаствуй (в качестве покупателя) в любых пяти совместных покупках (кроме завершённых и "Моментальных") и получи группу "Новичок" навсегда -> ссылка на раздел
  • Получай до 480 рублей за каждого приглашенного пользователя!
    представляем Вам очередное расширение партнерской программы, подробности описаны тут -> ссылка
  • 90% материалов доступно к скачиванию после простой регистрации!
    Если же ты хочешь скачивать материалы без требования оставлять отзывы то получи группу "Новичок", 10 способов повышения описаны тут -> ссылка
  • К сожалению количество битых ссылок растет и мы уже не можем их оперативно восстанавливать поэтому просим помощи у каждого нашего пользователя.
    С сегодняшнего дня, за каждую восстановленную ссылку мы заплатим Вам.
    Подробнее тут -> ссылка
  • Перенесем твои заслуги с другого ресурса!
    Мы понимаем как сложно прокачивать аккаунты на форумах, вроде раскачал аккаунт, а тут появляется ресурс в 100 раз круче но тоже с системой прокачки и снова качать аккаунт...
    Предлагаем вам перенести Ваши заслуги на другом подобном ресурсе к нам.
    Подробности описаны тут -> ссылка
  • Вы можете получать по 2.5% с каждой покупки и продажи на маркете! Подробности в теме Партнёрская программа
Если Вы не хотите скачивать, Вы всегда можетепосмотретьонлайн, просто нажмите кнопку ниже :

Открыть плеер

Torrent_Bot

Торрент-Бот
Бот форума
4 Окт 2016
92
160
20


Информация о фильме
Название: Маска Зорро
Оригинальное название: The Mask of Zorro
Год выхода: 1998
Жанр: Приключения, вестерн, мелодрама
Режиссер: Мартин Кэмпбелл
В ролях: Антонио Бандерас, Энтони Хопкинс, Кэтрин Зета-Джонс, Стюарт Уилсон, Уильям Маркес, Тони Амендола, Виктор Риверс, Л. К. Джонс, Педро Армендарис мл., Жоаким ди Алмейда, Мори Чайкин, Хосе Мария де Тавира, Диего Сиерес, Эмильяно Гуерра, Иоланда Орисага, Пако Морайта, Педро Альтамирано, Луиса Уэртас, Мария Фернандес Крус, Моника Фернандез Круз



О фильме: Долгие годы, скрываясь под маской Зорро, Дон Диего Де Ла Вега был справедливым и надежным защитником народа от зла, творимого губернатором Рафаэлем Монтеро. К несчастью, старость, потеря любимой жены, многолетняя разлука с дочерью и бесконечно долгие годы заточения изрядно подкосили его силы. Настало время обрести приемника, отомстить коварному и ненавистному Монтеро. Сама судьба сводит Де Ла Вега с Алехандро Муррьета. Опытный Дон попытается передать свое искусное мастерство молодому и горячему парню, прежде чем жестоко отомстить Монтеро — виновнику всех его бед. В конце незабываемых приключений учитель наконец-то найдет покой, а ученик получит замечательную награду — любовь прекрасной девушки Элены.

Страна: США, Германия
Студия: Amblin Entertainment, David Foster Productions
Продолжительность: 02:17:35
Перевод: Дублированный | Лицензия

Качество: BDRemux 2160p
Видео: 3840x2160 at 23.976 fps, MPEG-H HEVC HDR Video, 55800 kbps avg
Аудио #01: 48 kHz, AC3, 5.1, 640 Kbps | iTunes | RUS |
Аудио #02: 48 kHz, TrueHD, 7.1, 3738 Kbps | Оригинал | ENG |
Аудио #03: 48 kHz, AC3, 5.1, 640 Kbps | Оригинал | ENG |
Субтитры: Русские (Forced, full), английские



MI
General
Unique ID : 120472344421209557247358804953869529449 (0x5AA2212AC99372A7536468F037A73169)
Complete name : E:Video111The.Mask.of.Zorro.1998.BDREMUX.2160p.HDR.seleZen.mkv
Format : Matroska
Format version : Version 4
File size : 58.6 GiB
Duration : 2 h 17 min
Overall bit rate mode : Variable
Overall bit rate : 60.9 Mb/s
Movie name : The Mask of Zorro 1998 4K from селезень
Encoded date : UTC 2020-05-15 20:09:16
Writing application : mkvmerge v40.0.0 ('Old Town Road + Pony') 64-bit
Writing library : libebml v1.3.9 + libmatroska v1.5.2

Video
ID : 1
Format : HEVC
Format/Info : High Efficiency Video Coding
Format profile : Main [email protected]@High
HDR format : SMPTE ST 2086, HDR10 compatible
Codec ID : V_MPEGH/ISO/HEVC
Duration : 2 h 17 min
Bit rate : 55.8 Mb/s
Width : 3 840 pixels
Height : 2 160 pixels
Display aspect ratio : 16:9
Frame rate mode : Constant
Frame rate : 23.976 (24000/1001) FPS
Color space : YUV
Chroma subsampling : 4:2:0 (Type 2)
Bit depth : 10 bits
Bits/(Pixel*Frame) : 0.281
Stream size : 53.7 GiB (92%)
Language : English
Default : Yes
Forced : No
Color range : Limited
Color primaries : BT.2020
Transfer characteristics : PQ
Matrix coefficients : BT.2020 non-constant
Mastering display color pri : Display P3
Mastering display luminance : min: 0.0050 cd/m2, max: 4000 cd/m2
Maximum Content Light Level : 10000 cd/m2
Maximum Frame-Average Light : 2179 cd/m2

Audio #1
ID : 2
Format : AC-3
Format/Info : Audio Coding 3
Commercial name : Dolby Digital
Codec ID : A_AC3
Duration : 2 h 17 min
Bit rate mode : Constant
Bit rate : 640 kb/s
Channel(s) : 6 channels
Channel layout : L R C LFE Ls Rs
Sampling rate : 48.0 kHz
Frame rate : 31.250 FPS (1536 SPF)
Compression mode : Lossy
Stream size : 630 MiB (1%)
Title : Dub [License BD EUR 4K]
Language : Russian
Service kind : Complete Main
Default : Yes
Forced : Yes

Audio #2
ID : 3
Format : MLP FBA 16-ch
Format/Info : Meridian Lossless Packing FBA with 16-channel presentation
Commercial name : Dolby TrueHD with Dolby Atmos
Codec ID : A_TRUEHD
Duration : 2 h 17 min
Bit rate mode : Variable
Bit rate : 3 738 kb/s
Maximum bit rate : 5 808 kb/s
Channel(s) : 8 channels
Channel layout : L R C LFE Ls Rs Lb Rb
Sampling rate : 48.0 kHz
Frame rate : 1 200.000 FPS (40 SPF)
Compression mode : Lossless
Stream size : 3.59 GiB (6%)
Title : Original
Language : English
Default : No
Forced : No
Number of dynamic objects : 11
Bed channel count : 1 channel
Bed channel configuration : LFE

Audio #3
ID : 4
Format : AC-3
Format/Info : Audio Coding 3
Commercial name : Dolby Digital
Codec ID : A_AC3
Duration : 2 h 17 min
Bit rate mode : Constant
Bit rate : 640 kb/s
Channel(s) : 6 channels
Channel layout : L R C LFE Ls Rs
Sampling rate : 48.0 kHz
Frame rate : 31.250 FPS (1536 SPF)
Compression mode : Lossy
Stream size : 630 MiB (1%)
Language : English
Service kind : Complete Main
Default : No
Forced : No

Text #1
ID : 5
Format : UTF-8
Codec ID : S_TEXT/UTF8
Codec ID/Info : UTF-8 Plain Text
Duration : 1 h 42 min
Bit rate : 0 b/s
Count of elements : 11
Stream size : 722 Bytes (0%)
Title : Forced
Language : Russian
Default : Yes
Forced : Yes

Text #2
ID : 6
Format : UTF-8
Codec ID : S_TEXT/UTF8
Codec ID/Info : UTF-8 Plain Text
Duration : 2 h 9 min
Bit rate : 46 b/s
Count of elements : 682
Stream size : 43.7 KiB (0%)
Title : Full
Language : Russian
Default : No
Forced : No

Text #3
ID : 7
Format : UTF-8
Codec ID : S_TEXT/UTF8
Codec ID/Info : UTF-8 Plain Text
Duration : 2 h 8 min
Bit rate : 33 b/s
Count of elements : 834
Stream size : 31.2 KiB (0%)
Language : English
Default : No
Forced : No

Menu
00:00:00.000 : en:Chapter 1
00:09:53.510 : en:Chapter 2
00:14:03.926 : en:Chapter 3
00:27:00.327 : en:Chapter 4
00:32:53.972 : en:Chapter 5
00:37:08.476 : en:Chapter 6
00:42:49.275 : en:Chapter 7
00:51:58.407 : en:Chapter 8
01:02:13.104 : en:Chapter 9
01:09:06.017 : en:Chapter 10
01:15:40.995 : en:Chapter 11
01:31:09.839 : en:Chapter 12
01:41:00.221 : en:Chapter 13
01:46:26.171 : en:Chapter 14
01:52:12.225 : en:Chapter 15
02:04:20.161 : en:Chapter 16
02:12:06.043 : en:Chapter 17

Релиз от:

 

Вложения

  • 293,7 KB Просмотры: 0
    Личеров 0
    Сидеров 0
    Файлов 1
    Объем 58,6 GB

Привет!

Мы группа людей которые решили помочь другим в решении их проблем, а так же пользователям с поиском самых свежих и качественных инфопродуктов. За 4 с небольшим месяца мы создали этот форум на который заходят ежедневно тысячи человек и посещаемость постоянно растёт. Мы создали панель лицензирования для защиты PHP скриптов от воровства и SEO панель для мониторинга наших сайтов и выбора верной стратегии их развития. Мы надеемся что то что мы создали пригодится Вам и возможно Вы поможете нам развиваться и совершенствоваться вместе с Вами.

Статистика форума

Темы
406.656
Сообщения
465.104
Пользователи
84.660
Новый пользователь
nic34

Приложения форума для iOS и Android


У ркн там нет власти ;)
Приватные разговоры
Помощь Пользователи
    Вы не присоединились ни к одной комнате.