За последнюю неделю опубликовано 84 новых материалов.
Инструкция новичку Путеводитель по форуму Прокси для Telegram Показать подсказки , это бомба!

Скачать Mark Ronson - Late Night Feelings [24bit Hi-Res] (2019) FLAC бесплатно через торрент

  • Поучаствуй (в качестве покупателя) в любых пяти совместных покупках (кроме завершённых и "Моментальных") и получи группу "Новичок" навсегда -> ссылка на раздел
  • Получай до 480 рублей за каждого приглашенного пользователя!
    представляем Вам очередное расширение партнерской программы, подробности описаны тут -> ссылка
  • 90% материалов доступно к скачиванию после простой регистрации!
    Если же ты хочешь скачивать материалы без требования оставлять отзывы то получи группу "Новичок", 10 способов повышения описаны тут -> ссылка
  • К сожалению количество битых ссылок растет и мы уже не можем их оперативно восстанавливать поэтому просим помощи у каждого нашего пользователя.
    С сегодняшнего дня, за каждую восстановленную ссылку мы заплатим Вам.
    Подробнее тут -> ссылка
  • Перенесем твои заслуги с другого ресурса!
    Мы понимаем как сложно прокачивать аккаунты на форумах, вроде раскачал аккаунт, а тут появляется ресурс в 100 раз круче но тоже с системой прокачки и снова качать аккаунт...
    Предлагаем вам перенести Ваши заслуги на другом подобном ресурсе к нам.
    Подробности описаны тут -> ссылка
  • Вы можете получать по 2.5% с каждой покупки и продажи на маркете! Подробности в теме Партнёрская программа

Torrent_Bot

Торрент-Бот
Бот форума
4 Окт 2016
104
152
20



Исполнитель: Mark Ronson
Название: Late Night Feelings
Страна: UK
Жанр: Pop, Soul, Funk
Год: 2019
Продолжительность: 00:43:07
Битрейт аудио: Lossless
Формат/Кодек: FLAC
Тип рипа: tracks
Разрядность: 24/44.1
Количество каналов: 2.0


01. Late Night Prelude
02. Late Night Feelings
03. Find U Again
04. Pieces of Us
05. Knock Knock Knock
06. Don't Leave Me Lonely
07. When U Went Away
08. Truth
09. Nothing Breaks Like a Heart
10. True Blue
11. Why Hide
12. 2 AM0
13. Spinning

DR
foobar2000 1.4.4 / Замер динамического диапазона (DR) 1.1.1
Дата отчёта: 2019-06-26 11:20:50

--------------------------------------------------------------------------------
Анализ: Mark Ronson / Late Night Feelings
--------------------------------------------------------------------------------

DR Пики RMS Продолжительность трека
--------------------------------------------------------------------------------
DR9 -0.81 дБ -12.91 дБ 1:29 01-Late Night Prelude
DR6 -0.60 дБ -8.21 дБ 4:11 02-Late Night Feelings
DR5 -1.07 дБ -7.09 дБ 2:56 03-Find U Again
DR8 -0.60 дБ -11.57 дБ 3:26 04-Pieces of Us
DR10 -0.60 дБ -12.42 дБ 1:32 05-Knock Knock Knock
DR6 -0.60 дБ -8.90 дБ 3:36 06-Don't Leave Me Lonely
DR8 -0.60 дБ -11.01 дБ 1:58 07-When U Went Away
DR6 -0.60 дБ -7.97 дБ 3:48 08-Truth
DR5 -0.60 дБ -7.19 дБ 3:37 09-Nothing Breaks Like a Heart
DR6 -0.60 дБ -8.00 дБ 5:48 10-True Blue
DR6 -0.60 дБ -7.29 дБ 4:19 11-Why Hide
DR8 -0.60 дБ -11.09 дБ 3:18 12-2 AM
DR6 -0.81 дБ -9.72 дБ 3:11 13-Spinning
--------------------------------------------------------------------------------

Количество треков: 13
Реальные значения DR: DR7

Частота: 44100 Гц
Каналов: 2
Разрядность: 24
Битрейт: 1310 кбит/с
Кодек: FLAC
================================================================================
 

Вложения

  • 20,1 KB Просмотры: 1
    Личеров 0
    Сидеров 0
    Файлов 15
    Объем 472,8 MB

Привет!

Мы группа людей которые решили помочь другим в решении их проблем, а так же пользователям с поиском самых свежих и качественных инфопродуктов. За 4 с небольшим месяца мы создали этот форум на который заходят ежедневно тысячи человек и посещаемость постоянно растёт. Мы создали панель лицензирования для защиты PHP скриптов от воровства и SEO панель для мониторинга наших сайтов и выбора верной стратегии их развития. Мы надеемся что то что мы создали пригодится Вам и возможно Вы поможете нам развиваться и совершенствоваться вместе с Вами.

Статистика форума

Темы
404.550
Сообщения
461.466
Пользователи
80.111
Новый пользователь
dapohui

Приложения форума для iOS и Android


У ркн там нет власти ;)
Приватные разговоры
Помощь Пользователи
    Вы не присоединились ни к одной комнате.