За последнюю неделю опубликовано 112 новых материалов.
Инструкция новичку Путеводитель по форуму Прокси для Telegram Показать подсказки , это бомба!

Скачать Мария Мирабела / Maria Mirabella (1981) DVDRip-AVC бесплатно через торрент

  • Поучаствуй (в качестве покупателя) в любых пяти совместных покупках (кроме завершённых и "Моментальных") и получи группу "Новичок" навсегда -> ссылка на раздел
  • Получай до 480 рублей за каждого приглашенного пользователя!
    представляем Вам очередное расширение партнерской программы, подробности описаны тут -> ссылка
  • 90% материалов доступно к скачиванию после простой регистрации!
    Если же ты хочешь скачивать материалы без требования оставлять отзывы то получи группу "Новичок", 10 способов повышения описаны тут -> ссылка
  • К сожалению количество битых ссылок растет и мы уже не можем их оперативно восстанавливать поэтому просим помощи у каждого нашего пользователя.
    С сегодняшнего дня, за каждую восстановленную ссылку мы заплатим Вам.
    Подробнее тут -> ссылка
  • Перенесем твои заслуги с другого ресурса!
    Мы понимаем как сложно прокачивать аккаунты на форумах, вроде раскачал аккаунт, а тут появляется ресурс в 100 раз круче но тоже с системой прокачки и снова качать аккаунт...
    Предлагаем вам перенести Ваши заслуги на другом подобном ресурсе к нам.
    Подробности описаны тут -> ссылка
  • Вы можете получать по 2.5% с каждой покупки и продажи на маркете! Подробности в теме Партнёрская программа
Если Вы не хотите скачивать, Вы всегда можетепосмотретьонлайн, просто нажмите кнопку ниже :

Открыть плеер

Torrent_Bot

Торрент-Бот
Бот форума
4 Окт 2016
84
173
20

Мария, Мирабела / Maria Mirabella

Страна: Румыния-СССР
Жанр: мультфильм, мюзикл, фэнтези, комедия, семейный
Год выпуска: 1981
Продолжительность: 01:04:44
Перевод: Дублированный

Режиссер: Ион Попеску Гопо, Наталья Бодюл
В ролях: Гильда Манолеску, Мадалина Маринеску, Ингрид Селия, Ион Попеску-Гопо,
голоса: Людмила Гнилова, Клара Румянова, Леонид Серебренников, Рогволд Суховерко, Александр Воеводин

Описание: Музыкальная сказка, сочетание игрового кино и анимация.
Две сестренки решают помочь своим друзьям - лягушонку Кваки, светлячку Скипиричу и бабочке Амидэ.
Для этого надо попасть к доброй Лесной Фее, живущей в заколдованном лесу. Как ни страшно было сестренкам, но они все-таки отправились в путешествие, полное волшебных приключений. Лесная Фея помогла отважным сестричкам, и даже не важно, что это все им приснилось.



Кодек: х264
Качество: DVDRip-AVC
Видео: MPEG-4 AVC, 684х[email protected], 25 fps, 3150 Кбит/с
Аудио: АС3, 6 сh, 448 Кбит/с
Субтитры: Нет
Главы: Есть

Дополнительно
Реставрацию делать не стал, слишком порезана картинка под 16:9
Инфо файл
x264 [info]: frame I:716 Avg QP:18.14 size: 78321
x264 [info]: frame P:22838 Avg QP:20.78 size: 37340
x264 [info]: frame B:73546 Avg QP:22.30 size: 8434

Общее
Уникальный идентификатор : 242541346558630951115525245762420574193 (0xB677C3A3323C855E82F7CE678D2787F1)
Полное имя : I:сссрМария, мирабела 1981_DVDRip-AVC.mkv
Формат : Matroska
Версия формата : Version 2
Размер файла : 1,63 Гбайт
Продолжительность : 1 ч. 4 м.
Общий поток : 3599 Кбит/сек
Название фильма : Мария, мирабела_ВМВКшз-ФМС от mister.hats
Дата кодирования : UTC 2018-08-26 13:21:01
Программа кодирования : mkvmerge v5.8.0 ('No Sleep / Pillow') built on Sep 2 2012 15:37:04
Библиотека кодирования : libebml v1.2.3 + libmatroska v1.3.0

Видео
Идентификатор : 1
Формат : AVC
Формат/Информация : Advanced Video Codec
Профиль формата : [email protected]
Настройки формата : CABAC / 15 Ref Frames
Параметр CABAC формата : Да
Параметр RefFrames формата : 15 кадров
Идентификатор кодека : V_MPEG4/ISO/AVC
Продолжительность : 1 ч. 4 м.
Битрейт : 3150 Кбит/сек
Ширина : 684 пикселя
Высота : 574 пикселя
Соотношение сторон : 1,270
Соотношение сторон в оригинале : 1,271
Режим частоты кадров : Постоянный
Частота кадров : 25,000 кадров/сек
Цветовое пространство : YUV
Субдискретизация насыщенности : 4:2:0
Битовая глубина : 8 бит
Тип развёртки : Прогрессивная
Бит/(Пиксели*Кадры) : 0.321
Размер потока : 1,39 Гбайт (86%)
Библиотека кодирования : x264 core 152 r2851kMod ba24899
Настройки программы : cabac=1 / ref=15 / deblock=1:-2:-1 / analyse=0x3:0x133 / me=umh / subme=11 / psy=1 / fade_compensate=0.00 / psy_rd=1.05:0.10 / mixed_ref=1 / me_range=48 / chroma_me=1 / trellis=2 / 8x8dct=1 / cqm=0 / deadzone=21,11 / fast_pskip=0 / chroma_qp_offset=-3 / threads=12 / lookahead_threads=2 / sliced_threads=0 / nr=0 / decimate=0 / interlaced=0 / bluray_compat=0 / constrained_intra=0 / bframes=8 / b_pyramid=2 / b_adapt=2 / b_bias=0 / direct=3 / weightb=1 / open_gop=0 / weightp=2 / keyint=250 / keyint_min=25 / scenecut=40 / intra_refresh=0 / rc_lookahead=40 / rc=2pass / mbtree=0 / bitrate=3150 / ratetol=1.0 / qcomp=0.60 / qpmin=0 / qpmax=39 / qpstep=4 / cplxblur=20.0 / qblur=0.5 / vbv_maxrate=50000 / vbv_bufsize=62500 / nal_hrd=none / filler=0 / ip_ratio=1.25 / pb_ratio=1.30 / aq=1:1.00
Язык : English
Default : Да
Forced : Нет
Цветовой диапазон : Limited
Основные цвета : BT.601 PAL
Характеристики трансфера : BT.470 System B, BT.470 System G
Коэффициенты матрицы : BT.470 System B, BT.470 System G

Аудио
Идентификатор : 2
Формат : AC-3
Формат/Информация : Audio Coding 3
Параметр Endianness формата : Big
Идентификатор кодека : A_AC3
Продолжительность : 1 ч. 4 м.
Вид битрейта : Постоянный
Битрейт : 448 Кбит/сек
Каналы : 6 каналов
Расположение каналов : Front: L C R, Side: L R, LFE
Частота : 48,0 КГц
Частота кадров : 31,250 кадров/сек (1536 SPF)
Битовая глубина : 16 бит
Метод сжатия : С потерями
Размер потока : 207 Мбайт (12%)
Язык : Russian
Default : Да
Forced : Нет

Меню
00:00:00.000 : en:Chapter 1
00:05:55.800 : en:Chapter 2
00:12:03.600 : en:Chapter 3
00:17:44.400 : en:Chapter 4
00:23:36.600 : en:Chapter 5
00:29:31.800 : en:Chapter 6
00:35:26.400 : en:Chapter 7
00:41:15.600 : en:Chapter 8
00:47:39.000 : en:Chapter 9
00:53:13.800 : en:Chapter 10
00:58:52.200 : en:Chapter 11
Скриншоты

Сравнение с исходником
 

Вложения

  • 17,2 KB Просмотры: 0
    Личеров 0
    Сидеров 0
    Файлов 1
    Объем 1,6 GB

Привет!

Мы группа людей которые решили помочь другим в решении их проблем, а так же пользователям с поиском самых свежих и качественных инфопродуктов. За 4 с небольшим месяца мы создали этот форум на который заходят ежедневно тысячи человек и посещаемость постоянно растёт. Мы создали панель лицензирования для защиты PHP скриптов от воровства и SEO панель для мониторинга наших сайтов и выбора верной стратегии их развития. Мы надеемся что то что мы создали пригодится Вам и возможно Вы поможете нам развиваться и совершенствоваться вместе с Вами.

Статистика форума

Темы
411.775
Сообщения
470.516
Пользователи
90.821
Новый пользователь
olgaK2021

Приложения форума для iOS и Android


У ркн там нет власти ;)
Приватные разговоры
Помощь Пользователи
    Вы не присоединились ни к одной комнате.