За последнюю неделю опубликовано 30 новых материалов.
Инструкция новичку Путеводитель по форуму Прокси для Telegram Показать подсказки , это бомба!

Скачать Марафон / Zeny v behu (2019) BDRip 1080p от All zer | L бесплатно через торрент

  • Поучаствуй (в качестве покупателя) в любых пяти совместных покупках (кроме завершённых и "Моментальных") и получи группу "Новичок" навсегда -> ссылка на раздел
  • Получай до 480 рублей за каждого приглашенного пользователя!
    представляем Вам очередное расширение партнерской программы, подробности описаны тут -> ссылка
  • 90% материалов доступно к скачиванию после простой регистрации!
    Если же ты хочешь скачивать материалы без требования оставлять отзывы то получи группу "Новичок", 10 способов повышения описаны тут -> ссылка
  • К сожалению количество битых ссылок растет и мы уже не можем их оперативно восстанавливать поэтому просим помощи у каждого нашего пользователя.
    С сегодняшнего дня, за каждую восстановленную ссылку мы заплатим Вам.
    Подробнее тут -> ссылка
  • Перенесем твои заслуги с другого ресурса!
    Мы понимаем как сложно прокачивать аккаунты на форумах, вроде раскачал аккаунт, а тут появляется ресурс в 100 раз круче но тоже с системой прокачки и снова качать аккаунт...
    Предлагаем вам перенести Ваши заслуги на другом подобном ресурсе к нам.
    Подробности описаны тут -> ссылка
  • Вы можете получать по 2.5% с каждой покупки и продажи на маркете! Подробности в теме Партнёрская программа
Если Вы не хотите скачивать, Вы всегда можетепосмотретьонлайн, просто нажмите кнопку ниже :

Открыть плеер

Torrent_Bot

Торрент-Бот
Бот форума
4 Окт 2016
93
160
20



Информация о фильме
Название: Марафон
Оригинальное название: Zeny v behu / Ženy v běhu
Год выхода: 2019
Жанр: Комедия
Режиссер: Martin Horský
В ролях:
Злата Адамовска, Tereza Kostková, Вероника Кубаржова, Jenovéfa Boková, Ондржей Ветхи, Владимир Поливка, Мартин Хофманн, Болек Поливка, Michaela Sodomková

О фильме:
Вера (Злата Адамовска) прожила чудесную жизнь с Йиндржихом и полна решимости исполнить его последнее желание - пробежать марафон! Энергичная мать троих дочерей не видит в этом проблем. Они просто делят маршрут на четыре части и преодолевают более 42 километров, как семейная эстафета. Хотя ни один из них еще не пробежал метр, до старта еще три месяца, и тренер Войта (Владимир Поливка) подготовил отличный фитнес-план. Просто начни. Однако дочери не торопятся с бегом. У них совсем другие заботы. Старшая Марсела (Тереза ​​Косткова) ежедневно сталкивается с проблемами своих трех сыновей, а их отец Карел (Ондржей Ветхи) уже двадцать лет не хочет просить ее руки. Бара (Вероника Кубарова) мечтает о ребенке, но еще не нашла для него подходящего отца. Ее биологические часы бьют тревогу. А у самой младшей Катьки (Jenovéfa Boková) есть мужчина, но у мужчины есть одна главная зацепка - его жена. Влюбленная Катерина все еще цепляется за отношения без будущего. Очевидно, что у дочерей сейчас совсем другие приоритеты, нежели беговые тренировки. Поэтому своеобразная мама Вера должна сделать все возможное, чтобы довести семейную эстафету до старта марафона, мечты Йиндржиха через ряд препятствий и комедийных осложнений...


Страна: Чехия
Студия: Infinity Prague
Продолжительность: 01:33:58
Перевод: Любительский (многоголосный, закадровый) - Синема УС

Файл
Формат: mp4
Видео кодек: h.264, AVC
Аудио кодек: AAC LC
Качество: BDRip 1080p
Видео: 1920x1038, 24 fps, 4 901 kb/s
Аудио: AAC, 2-chanel, 419 kb/s, 48 kHz
Субтитры: русские вшитые (Forced Hardsub)

MediaInfo
Общее
Полное имя : Марафон(1080p.RUS).mp4
Формат : MPEG-4
Профиль формата : Base Media / Version 2
Идентификатор кодека : mp42 (mp42/mp41)
Размер файла : 3,43 Гбайт
Продолжительность : 1 ч. 33 м.
Режим общего битрейта : Переменный
Общий поток : 5223 Кбит/сек
Дата кодирования : UTC 2020-08-19 21:09:30
Дата пометки : UTC 2020-08-19 21:09:30

Видео
Идентификатор : 1
Формат : AVC
Формат/Информация : Advanced Video Codec
Профиль формата : [email protected]
Параметр CABAC формата : Да
Параметр ReFrames формата : 4 кадра
Идентификатор кодека : avc1
Идентификатор кодека/Информация : Advanced Video Coding
Продолжительность : 1 ч. 33 м.
Продолжительность оригинала : 1 ч. 33 м.
Битрейт : 4901 Кбит/сек
Ширина : 1920 пикселей
Высота : 1038 пикселей
Соотношение сторон : 1,85:1
Режим частоты кадров : Постоянный
Частота кадров : 24,000 кадра/сек
Цветовое пространство : YUV
Субдискретизация насыщенности : 4:2:0
Битовая глубина : 8 бит
Тип развёртки : Прогрессивная
Бит/(Пиксели*Кадры) : 0.102
Размер потока : 3,22 Гбайт (94%)
Размер потока оригинала : 3,22 Гбайт (94%)
Язык : English
Дата кодирования : UTC 2020-08-19 21:09:31
Дата пометки : UTC 2020-08-19 21:09:31
Цветовой диапазон : Limited
Основные цвета : BT.709
Характеристики трансфера : BT.709
Коэффициенты матрицы : BT.709

Аудио
Идентификатор : 2
Формат : AAC
Формат/Информация : Advanced Audio Codec
Профиль формата : LC
Идентификатор кодека : 40
Продолжительность : 1 ч. 33 м.
Продолжительность оригинала : 1 ч. 33 м.
Вид битрейта : Переменный
Битрейт : 317 Кбит/сек
Максимальный битрейт : 419 Кбит/сек
Каналы : 2 канала
Расположение каналов : Front: L R
Частота : 48,0 КГц
Частота кадров : 46,875 кадров/сек (1024 spf)
Метод сжатия : С потерями
Размер потока : 213 Мбайт (6%)
Размер потока оригинала : 213 Мбайт (6%)
Язык : English
Дата кодирования : UTC 2020-08-19 21:12:11
Дата пометки : UTC 2020-08-19 21:12:11

Дополнительно: Лично монтированная, русская дорожка звука взамен чешского, с сохранением оригинальных звуковых эффектов и музыки. Вырезана реклама, вырезаны ругательства.

Семпл

Скриншоты
 

Вложения

  • 18 KB Просмотры: 0
    Личеров 0
    Сидеров 0
    Файлов 1
    Объем 3,4 GB

Привет!

Мы группа людей которые решили помочь другим в решении их проблем, а так же пользователям с поиском самых свежих и качественных инфопродуктов. За 4 с небольшим месяца мы создали этот форум на который заходят ежедневно тысячи человек и посещаемость постоянно растёт. Мы создали панель лицензирования для защиты PHP скриптов от воровства и SEO панель для мониторинга наших сайтов и выбора верной стратегии их развития. Мы надеемся что то что мы создали пригодится Вам и возможно Вы поможете нам развиваться и совершенствоваться вместе с Вами.

Статистика форума

Темы
406.605
Сообщения
465.028
Пользователи
84.390
Новый пользователь
князь владимир

Приложения форума для iOS и Android


У ркн там нет власти ;)
Приватные разговоры
Помощь Пользователи
    Вы не присоединились ни к одной комнате.