За последнюю неделю опубликовано 178 новых материалов.
Инструкция новичку Путеводитель по форуму Прокси для Telegram Показать подсказки , это бомба!

Скачать Манускрипт ниндзя / Juubee Ninpuuchou (1993) BDRip от Deadmauvlad | D | ОРТ бесплатно через торрент

  • Поучаствуй (в качестве покупателя) в любых пяти совместных покупках (кроме завершённых и "Моментальных") и получи группу "Новичок" навсегда -> ссылка на раздел
  • Получай до 480 рублей за каждого приглашенного пользователя!
    представляем Вам очередное расширение партнерской программы, подробности описаны тут -> ссылка
  • 90% материалов доступно к скачиванию после простой регистрации!
    Если же ты хочешь скачивать материалы без требования оставлять отзывы то получи группу "Новичок", 10 способов повышения описаны тут -> ссылка
  • К сожалению количество битых ссылок растет и мы уже не можем их оперативно восстанавливать поэтому просим помощи у каждого нашего пользователя.
    С сегодняшнего дня, за каждую восстановленную ссылку мы заплатим Вам.
    Подробнее тут -> ссылка
  • Перенесем твои заслуги с другого ресурса!
    Мы понимаем как сложно прокачивать аккаунты на форумах, вроде раскачал аккаунт, а тут появляется ресурс в 100 раз круче но тоже с системой прокачки и снова качать аккаунт...
    Предлагаем вам перенести Ваши заслуги на другом подобном ресурсе к нам.
    Подробности описаны тут -> ссылка
  • Вы можете получать по 2.5% с каждой покупки и продажи на маркете! Подробности в теме Партнёрская программа

Torrent_Bot

Торрент-Бот
Бот форума
4 Окт 2016
124
98
20

Год выпуска: 1993
Страна: Япония
Жанр: Эротика, Ужасы, романтика
Продолжительность: 01:31:37
Перевод: Профессиональный (полное дублирование) (ОРТ / Первый канал)
Режиссёр: Ёсиаки Кавадзири / Yoshiaki Kawajiri, Кевин Сеймур / Kevin Seymour
В ролях: Коиши Ямадера (Jubei Kibagami, озвучка), Еми Синохара (Kagero, озвучка), Такеши Аоно (озвучка), Дайсукэ Гори (озвучка), Тосихико Секи (Yurimaru, озвучка), Сюитиро Морияма (озвучка), Ричард Барнс (Mushizo Shinkuro, озвучка), Сонни Биркетт (озвучка), Ричард Кансино (озвучка), Дин Эллиот (Jubei Kibagami, озвучка), Ричард Эпкар (Lord Himuro Gemma, озвучка), Майкл Форест (озвучка)


ОПИСАНИЕ:
Феодальная Япония. Время опасности, интриг и лжи. Дзюбэй — ниндзя без хозяина, в одиночку путешествующий по миру. Он продаёт свои услуги тем, у кого есть деньги... или иная стоящая причина. Его устрашающие способности неплохо ему послужили, но коварный заговор по свержению правительства может положить конец странствиям Дзюбэя, а, возможно, даже и его жизни.
Когда небольшая деревня становится жертвой ужасной эпидемии, туда отправляют группу ниндзя для расследования, однако всё оказывается не так, как казалось на первый взгляд. Группа попадает в засаду, устроенную жутким получеловеком-полумонстром невероятной силы. В живых остаётся только Кагэро — красивая девушка-ниндзя, чьё прикосновение может вызвать мгновенную смерть. Дзюбэй спасает её от судьбы, более страшной, чем сама смерть, и невольно оказывается втянутым в паутину предательства и измены. Вскоре ему предстоит пройти сложнейшее испытание в своей жизни — сразиться с врагом, не боящимся смерти и способным уничтожить весь мир.



Возрастное ограничение:Запрещено для детей!




Качество:BDRip [исходник: Blu-ray REMUX.H264.1080P.DD51.TRUE-HD]
Контейнер / Кодек: AVI / XviD
Видео: 720x528 (4:3), 23.976 fps, 1679 Кбит/сек (0.184 bit/pixel)
Аудио №1: AC-3, 48,0 КГц, 1 ch, 192 Кбит/сек, CBR | | Русский дубляж
Аудио №2: AC-3, 48,0 КГц, 2 ch, 384 Кбит/сек, CBR | | Оригинал
Субтитры: Русские (МС Еntertainment)



MediaInfo
Общее
Полное имя : [Deadmau-RAWS] Juubee.Ninpuuchou.1993.Movie.BDRip.1.46.GB.RUS.JAP.Deadmauvlad.avi
Формат : AVI
Формат/Информация : Audio Video Interleave
Размер файла : 1,45 Гбайт
Продолжительность : 1 ч. 31 м.
Общий поток : 2270 Кбит/сек
Название фильма : [Deadmau-RAWS] Juubee.Ninpuuchou.1993.Movie.BDRip.1.46.GB.RUS.JAP.Deadmauvlad
Режиссёр : Encoder by Deadmauvlad
Жанр : Эротика, Ужасы, романтика
Программа кодирования : VirtualDubMod 1.5.10.3 | www.virtualdub-fr.org || (build 2550/release)
Формат оригинала/Имя : Аниме
Авторское право : Encoder by Deadmauvlad
Примечание : Encoder by Deadmauvlad

Видео
Идентификатор : 0
Формат : MPEG-4 Visual
Профиль формата : Advanced Simple@L5
Настройки формата : BVOP1 / Custom Matrix
Параметр BVOP формата : 1
Параметр QPel формата : Нет
Параметр GMC формата : Без точки перехода
Параметр матрицы формата : Выборочная
Идентификатор кодека : XVID
Идентификатор кодека/Подсказка : XviD
Продолжительность : 1 ч. 31 м.
Битрейт : 1679 Кбит/сек
Ширина : 720 пикселей
Высота : 528 пикселей
Соотношение сторон : 4:3
Частота кадров : 23,976 (24000/1001) кадра/сек
Цветовое пространство : YUV
Субдискретизация насыщенности : 4:2:0
Битовая глубина : 8 бит
Тип развёртки : Прогрессивная
Метод сжатия : С потерями
Бит/(Пиксели*Кадры) : 0.184
Размер потока : 1,07 Гбайт (74%)
Библиотека кодирования : XviD 73

Аудио #1
Идентификатор : 1
Формат : AC-3
Формат/Информация : Audio Coding 3
Коммерческое название : Dolby Digital
Идентификатор кодека : 2000
Продолжительность : 1 ч. 31 м.
Вид битрейта : Постоянный
Битрейт : 192 Кбит/сек
Каналы : 1 канал
Channel layout : C
Частота : 48,0 КГц
Частота кадров : 31,250 кадров/сек (1536 SPF)
Битовая глубина : 16 бит
Метод сжатия : С потерями
Размер потока : 126 Мбайт (8%)
Выравнивание : Разделение по промежуткам
Продолжительность промежутка : 42 мс. (1,00 видеокадр)
Время предзагрузки промежутка : 500 мс.

Аудио #2
Идентификатор : 2
Формат : AC-3
Формат/Информация : Audio Coding 3
Коммерческое название : Dolby Digital
Идентификатор кодека : 2000
Продолжительность : 1 ч. 31 м.
Вид битрейта : Постоянный
Битрейт : 384 Кбит/сек
Каналы : 2 канала
Channel layout : L R
Частота : 48,0 КГц
Частота кадров : 31,250 кадров/сек (1536 SPF)
Битовая глубина : 16 бит
Метод сжатия : С потерями
Размер потока : 252 Мбайт (17%)
Выравнивание : Разделение по промежуткам
Продолжительность промежутка : 42 мс. (1,00 видеокадр)
Время предзагрузки промежутка : 500 мс.


Скриншоты

ЦитатаКто-то писал:
За дубляж спасибо Alexandr8909. За информацию о наличии дубляжа спасибо Danil6300

 

Вложения

  • 3 KB Просмотры: 0
    Личеров 0
    Сидеров 0
    Файлов 2
    Объем 1,5 GB
Ваш e-mail не будет опубликован. Он потребуется для подтверждения Вашего поста.
Оформление текста Нажмите «Ввод», чтобы отправить ответ.

Привет!

Мы группа людей которые решили помочь другим в решении их проблем, а так же пользователям с поиском самых свежих и качественных инфопродуктов. За 4 с небольшим месяца мы создали этот форум на который заходят ежедневно тысячи человек и посещаемость постоянно растёт. Мы создали панель лицензирования для защиты PHP скриптов от воровства и SEO панель для мониторинга наших сайтов и выбора верной стратегии их развития. Мы надеемся что то что мы создали пригодится Вам и возможно Вы поможете нам развиваться и совершенствоваться вместе с Вами.

Статистика форума

Темы
380.754
Сообщения
420.497
Пользователи
51.021
Новый пользователь
Civicov

Приложения форума для iOS и Android


У ркн там нет власти ;)
Приватные разговоры
Помощь Пользователи
    Вы не присоединились ни к одной комнате.