За последнюю неделю опубликовано 63 новых материалов.
Инструкция новичку Путеводитель по форуму Прокси для Telegram Показать подсказки , это бомба!

Скачать Манила в объятиях ночи / Manila in the Claws of Light / Maynila sa mga kuko ng liwanag (1975) BDRip 720p от HDReactor | A бесплатно через торрент

  • Поучаствуй (в качестве покупателя) в любых пяти совместных покупках (кроме завершённых и "Моментальных") и получи группу "Новичок" навсегда -> ссылка на раздел
  • Получай до 480 рублей за каждого приглашенного пользователя!
    представляем Вам очередное расширение партнерской программы, подробности описаны тут -> ссылка
  • 90% материалов доступно к скачиванию после простой регистрации!
    Если же ты хочешь скачивать материалы без требования оставлять отзывы то получи группу "Новичок", 10 способов повышения описаны тут -> ссылка
  • К сожалению количество битых ссылок растет и мы уже не можем их оперативно восстанавливать поэтому просим помощи у каждого нашего пользователя.
    С сегодняшнего дня, за каждую восстановленную ссылку мы заплатим Вам.
    Подробнее тут -> ссылка
  • Перенесем твои заслуги с другого ресурса!
    Мы понимаем как сложно прокачивать аккаунты на форумах, вроде раскачал аккаунт, а тут появляется ресурс в 100 раз круче но тоже с системой прокачки и снова качать аккаунт...
    Предлагаем вам перенести Ваши заслуги на другом подобном ресурсе к нам.
    Подробности описаны тут -> ссылка
  • Вы можете получать по 2.5% с каждой покупки и продажи на маркете! Подробности в теме Партнёрская программа
Если Вы не хотите скачивать, Вы всегда можетепосмотретьонлайн, просто нажмите кнопку ниже :

Открыть плеер

Torrent_Bot

Торрент-Бот
Бот форума
4 Окт 2016
92
160
20

Информация о фильме
Название: Манила в объятиях ночи
Оригинальное название: Maynila: Sa mga kuko ng liwanag
Год выпуска: 1975
Жанр:Драма, детектив
Выпущено: Филиппины, Cinema Artists
Режиссер: Лино Брока
В ролях: Ильда Коронель, Бемболь Роко, Лу Сальвадор мл., Джуни Гамбоа, Пио Де Кастро III, Данило Посадас, Джо Джарди

О фильме: Этот фильм сейчас называют лучшим филиппинским фильмом за всю ее историю. Фильм - шедевр был провозглашен вершиной так называемого кино «третьего мира». Удивительный и потрясающий фильм с незабываемыми персонажами. Трагическая история Хулио, провинциального рыбака, который пошел в большой город, чтобы искать Лигейю, свою возлюбленную. Ей была обещана хорошая работа, но попав в город, она загадочно исчезла. В своих долгих поисках, обманутый и лишенных всяких прав, он постепенно теряет свою провинциальную наивность. И в то же время гнев медленно, но все сильнее, нарастает в нем, гнев к этому большому и злому капиталистическому городу, сосущему жизнь из всего живого и нового.




Продолжительность: 02:05:20
Перевод: Авторский [Stalk] Н.Кирдин
Субтитры: Русские, английские

Файл
Качество: BDRip (720p)
Видео: MPEG-4 AVC, 8545 Кбит/с, 1280x692, 24 кадр/с
Аудио #1: Русский (AC3, 2 ch, 192 Кбит/с)
Аудио #2: Тагальский (AC3, 1 ch, 128 Кбит/с)

МедиаИнфо
Формат : Matroska
Версия формата : Version 2
Размер файла : 7,76 Гбайт
Продолжительность : 2 ч. 5 м.
Общий поток : 8 870 Кбит/сек
Название фильма : ~V ad~
Дата кодирования : UTC 2020-08-01 16:15:47
Программа кодирования : mkvmerge v6.9.1 ('Blue Panther') 32bit built on Apr 18 2014 18:15:44
Библиотека кодирования : libebml v1.3.0 + libmatroska v1.4.1
Обложка : Yes
Attachments : cover.jpg

Видео
Идентификатор : 1
Формат : AVC
Формат/Информация : Advanced Video Codec
Профиль формата : [email protected]
Настройки формата : CABAC / 9 Ref Frames
Параметр CABAC формата : Да
Параметр RefFrames формата : 9 кадров
Идентификатор кодека : V_MPEG4/ISO/AVC
Продолжительность : 2 ч. 5 м.
Битрейт : 8 545 Кбит/сек
Ширина : 1 280 пикселей
Высота : 692 пикселя
Соотношение сторон : 1,85:1
Режим частоты кадров : Постоянный
Частота кадров : 24,000 кадра/сек
Цветовое пространство : YUV
Субдискретизация насыщенности : 4:2:0
Битовая глубина : 8 бит
Тип развёртки : Прогрессивная
Бит/(Пиксели*Кадры) : 0.402
Размер потока : 7,33 Гбайт (94%)
Заголовок : ~V~
Библиотека кодирования : x264 core 161 r3018 db0d417
Настройки программы : cabac=1 / ref=9 / deblock=1:-2:-2 / analyse=0x3:0x133 / me=umh / subme=11 / psy=1 / psy_rd=1.00:0.00 / mixed_ref=1 / me_range=32 / chroma_me=1 / trellis=2 / 8x8dct=1 / cqm=0 / deadzone=21,11 / fast_pskip=0 / chroma_qp_offset=-2 / threads=12 / lookahead_threads=1 / sliced_threads=0 / nr=0 / decimate=0 / interlaced=0 / bluray_compat=0 / constrained_intra=0 / bframes=12 / b_pyramid=2 / b_adapt=2 / b_bias=0 / direct=3 / weightb=1 / open_gop=0 / weightp=2 / keyint=240 / keyint_min=24 / scenecut=40 / intra_refresh=0 / rc=2pass / mbtree=0 / bitrate=8545 / ratetol=1.0 / qcomp=0.65 / qpmin=0 / qpmax=69 / qpstep=4 / cplxblur=20.0 / qblur=0.5 / ip_ratio=1.20 / pb_ratio=1.20 / aq=3:1.00
Язык : Английский
Default : Да
Forced : Нет
Duration_Source : General_Duration

Аудио #1
Идентификатор : 2
Формат : AC-3
Формат/Информация : Audio Coding 3
Коммерческое название : Dolby Digital
Идентификатор кодека : A_AC3
Продолжительность : 2 ч. 5 м.
Вид битрейта : Постоянный
Битрейт : 192 Кбит/сек
Каналы : 2 канала
Channel layout : L R
Частота : 48,0 КГц
Частота кадров : 31,250 кадров/сек (1536 SPF)
Метод сжатия : С потерями
Размер потока : 172 Мбайт (2%)
Заголовок : AVO [Stalk] Н.Кирдин
Язык : Русский
Service kind : Complete Main
Default : Да
Forced : Нет
Duration_Source : General_Duration

Аудио #2
Идентификатор : 3
Формат : AC-3
Формат/Информация : Audio Coding 3
Коммерческое название : Dolby Digital
Идентификатор кодека : A_AC3
Продолжительность : 2 ч. 5 м.
Вид битрейта : Постоянный
Битрейт : 128 Кбит/сек
Каналы : 1 канал
Channel layout : C
Частота : 48,0 КГц
Частота кадров : 31,250 кадров/сек (1536 SPF)
Метод сжатия : С потерями
Размер потока : 115 Мбайт (1%)
Заголовок : original
Язык : Tagalog
Service kind : Complete Main
Default : Нет
Forced : Нет
Duration_Source : General_Duration

Текст #1
Идентификатор : 4
Формат : UTF-8
Идентификатор кодека : S_TEXT/UTF8
Идентификатор кодека/Информация : UTF-8 Plain Text
Заголовок : Full [Herbst]
Язык : Русский
Default : Нет
Forced : Нет

Текст #2
Идентификатор : 5
Формат : UTF-8
Идентификатор кодека : S_TEXT/UTF8
Идентификатор кодека/Информация : UTF-8 Plain Text
Заголовок : Full
Язык : Английский
Default : Нет
Forced : Нет

Меню
00:00:00.000 : en:Chapter 01
00:10:26.200 : en:Chapter 02
00:22:01.458 : en:Chapter 03
00:31:49.500 : en:Chapter 04
00:42:30.208 : en:Chapter 05
00:50:18.625 : en:Chapter 06
00:58:16.958 : en:Chapter 07
01:07:09.833 : en:Chapter 08
01:20:03.167 : en:Chapter 09
01:34:00.792 : en:Chapter 10
01:46:05.917 : en:Chapter 11
01:57:23.417 : en:Chapter 12


Скриншоты

Сэмпл
Релиз от:
 

Вложения

  • 20,6 KB Просмотры: 0
    Личеров 0
    Сидеров 0
    Файлов 1
    Объем 7,8 GB

Привет!

Мы группа людей которые решили помочь другим в решении их проблем, а так же пользователям с поиском самых свежих и качественных инфопродуктов. За 4 с небольшим месяца мы создали этот форум на который заходят ежедневно тысячи человек и посещаемость постоянно растёт. Мы создали панель лицензирования для защиты PHP скриптов от воровства и SEO панель для мониторинга наших сайтов и выбора верной стратегии их развития. Мы надеемся что то что мы создали пригодится Вам и возможно Вы поможете нам развиваться и совершенствоваться вместе с Вами.

Статистика форума

Темы
406.658
Сообщения
465.103
Пользователи
84.689
Новый пользователь
Alexk2020

Приложения форума для iOS и Android


У ркн там нет власти ;)
Приватные разговоры
Помощь Пользователи
    Вы не присоединились ни к одной комнате.