За последнюю неделю опубликовано 34 новых материалов.
Инструкция новичку Путеводитель по форуму Прокси для Telegram Показать подсказки , это бомба!

Скачать Мамы 3 (2014) BDRip от ivandubskoj | Лицензия бесплатно через торрент

  • Поучаствуй (в качестве покупателя) в любых пяти совместных покупках (кроме завершённых и "Моментальных") и получи группу "Новичок" навсегда -> ссылка на раздел
  • Получай до 480 рублей за каждого приглашенного пользователя!
    представляем Вам очередное расширение партнерской программы, подробности описаны тут -> ссылка
  • 90% материалов доступно к скачиванию после простой регистрации!
    Если же ты хочешь скачивать материалы без требования оставлять отзывы то получи группу "Новичок", 10 способов повышения описаны тут -> ссылка
  • К сожалению количество битых ссылок растет и мы уже не можем их оперативно восстанавливать поэтому просим помощи у каждого нашего пользователя.
    С сегодняшнего дня, за каждую восстановленную ссылку мы заплатим Вам.
    Подробнее тут -> ссылка
  • Перенесем твои заслуги с другого ресурса!
    Мы понимаем как сложно прокачивать аккаунты на форумах, вроде раскачал аккаунт, а тут появляется ресурс в 100 раз круче но тоже с системой прокачки и снова качать аккаунт...
    Предлагаем вам перенести Ваши заслуги на другом подобном ресурсе к нам.
    Подробности описаны тут -> ссылка
  • Вы можете получать по 2.5% с каждой покупки и продажи на маркете! Подробности в теме Партнёрская программа
Если Вы не хотите скачивать, Вы всегда можетепосмотретьонлайн, просто нажмите кнопку ниже :

Открыть плеер

Torrent_Bot

Торрент-Бот
Бот форума
4 Окт 2016
93
160
20
Информация о фильме
Оригинальное название: Мамы 3
Год выхода: 2014
Жанр: Комедия, семейный
Режиссёр: Георгий Малков, Эмиль Никогосян
В ролях: Анастасия Заворотнюк, Ольга Волкова, Мария Сёмкина, Гарик Харламов, Андрей Ургант, Тимур Родригез, Евгений Сморигин, Евгений Шапошников, Кристина Орса, Захар Соколов

О фильме: 31 декабря наши Мамы вместо того, чтобы резать оливье и смотреть «Иронию Судьбы», летят в Прагу праздновать Новый Год «по-европейски». Но самолет из-за погодных условий вынужден приземлиться в аэропорту небольшого, но очень красивого и уютного польского городка. Город встречает Мам абсолютно пустыми улицами. Новый Год для местных жителей- спокойный праздник. Наших Мам и их попутчиков это категорически не устраивает, и они решают устроить в этой «провинциальной Европе» настоящий, безбашенный Новый Год «по-нашему»... Дело за малым - найти Деда Мороза, Советское шампанское, оливье, петарды... в общем, всё, что нужно для праздника!



Выпущено: Россия, Централ Партнершип
Продолжительность: 01:32:00
Перевод: Не требуется

Файл
Качество: BDRip [Исходник: Blu-ray RUS 1080p AVC DTS 5.1]
Видео: XviD, 1815 Кбит/с, 720x304 (2.35:1), 24 кадр/с
Аудио: Русский, Dolby AC3, 48000 Гц, 448 Кбит/с, 6 каналов (5.1) - Оригинал
Субтитры: Нет

9262eb5b20728555f9ccee1b30a6ac69.png

MediaInfo
General
Complete name : Mamy.3.2014.BDRip.avi
Format : AVI
Format/Info : Audio Video Interleave
File size : 1.46 GiB
Duration : 1h 32mn
Overall bit rate : 2 271 Kbps
Writing application : VirtualDubMod 1.5.10.3 (build 2550/release)
Writing library : VirtualDubMod build 2550/release
Copyright : rip by ivandubskoj

Video
ID : 0
Format : MPEG-4 Visual
Format profile : Advanced [email protected]
Format settings, BVOP : 1
Format settings, QPel : No
Format settings, GMC : No warppoints
Format settings, Matrix : Custom
Codec ID : XVID
Codec ID/Hint : XviD
Duration : 1h 32mn
Bit rate : 1 815 Kbps
Width : 720 pixels
Height : 304 pixels
Display aspect ratio : 2.35:1
Frame rate : 24.000 fps
Color space : YUV
Chroma subsampling : 4:2:0
Bit depth : 8 bits
Scan type : Progressive
Compression mode : Lossy
Bits/(Pixel*Frame) : 0.345
Stream size : 1.17 GiB (80%)
Writing library : XviD 73

Audio
ID : 1
Format : AC-3
Format/Info : Audio Coding 3
Mode extension : CM (complete main)
Codec ID : 2000
Duration : 1h 32mn
Bit rate mode : Constant
Bit rate : 448 Kbps
Channel(s) : 6 channels
Channel positions : Front: L C R, Side: L R, LFE
Sampling rate : 48.0 KHz
Bit depth : 16 bits
Compression mode : Lossy
Stream size : 295 MiB (20%)
Alignment : Split accross interleaves
Interleave, duration : 64 ms (1.54 video frames)
Interleave, preload duration : 500 ms
Скриншоты
5dc8c976f6420a43ccc58f73e02e02ad.jpg377a0888f5ccaeca26d02aae037475bc.jpgf29dbb4d12c23241a36a5d2762771c37.jpgfa1545efded018a10026a5e2506f1ae0.jpg0cd24a5a69b719e08eda18fde7dabf67.jpg6fbd17e15b5c6e26e409ea30c48057fb.jpg
Автор рипа - ivandubskoj
 

Вложения

Привет!

Мы группа людей которые решили помочь другим в решении их проблем, а так же пользователям с поиском самых свежих и качественных инфопродуктов. За 4 с небольшим месяца мы создали этот форум на который заходят ежедневно тысячи человек и посещаемость постоянно растёт. Мы создали панель лицензирования для защиты PHP скриптов от воровства и SEO панель для мониторинга наших сайтов и выбора верной стратегии их развития. Мы надеемся что то что мы создали пригодится Вам и возможно Вы поможете нам развиваться и совершенствоваться вместе с Вами.

Статистика форума

Темы
406.599
Сообщения
464.995
Пользователи
84.341
Новый пользователь
Лана_1209

Приложения форума для iOS и Android


У ркн там нет власти ;)
Приватные разговоры
Помощь Пользователи
    Вы не присоединились ни к одной комнате.