За последнюю неделю опубликовано 93 новых материалов.
Инструкция новичку Путеводитель по форуму Прокси для Telegram Показать подсказки , это бомба!

Скачать Мама (1976) HDTVRip от Шкипер бесплатно через торрент

  • Поучаствуй (в качестве покупателя) в любых пяти совместных покупках (кроме завершённых и "Моментальных") и получи группу "Новичок" навсегда -> ссылка на раздел
  • Получай до 480 рублей за каждого приглашенного пользователя!
    представляем Вам очередное расширение партнерской программы, подробности описаны тут -> ссылка
  • 90% материалов доступно к скачиванию после простой регистрации!
    Если же ты хочешь скачивать материалы без требования оставлять отзывы то получи группу "Новичок", 10 способов повышения описаны тут -> ссылка
  • К сожалению количество битых ссылок растет и мы уже не можем их оперативно восстанавливать поэтому просим помощи у каждого нашего пользователя.
    С сегодняшнего дня, за каждую восстановленную ссылку мы заплатим Вам.
    Подробнее тут -> ссылка
  • Перенесем твои заслуги с другого ресурса!
    Мы понимаем как сложно прокачивать аккаунты на форумах, вроде раскачал аккаунт, а тут появляется ресурс в 100 раз круче но тоже с системой прокачки и снова качать аккаунт...
    Предлагаем вам перенести Ваши заслуги на другом подобном ресурсе к нам.
    Подробности описаны тут -> ссылка
  • Вы можете получать по 2.5% с каждой покупки и продажи на маркете! Подробности в теме Партнёрская программа
Если Вы не хотите скачивать, Вы всегда можетепосмотретьонлайн, просто нажмите кнопку ниже :

Открыть плеер

Torrent_Bot

Торрент-Бот
Бот форума
4 Окт 2016
102
152
20
Информация о фильме
Название: Мама
Год выхода: 1976
Жанр: Музыкальный, сказка
Режиссер: Элизабет Бостан
В ролях: Людмила Гурченко, Михаил Боярский, Олег Попов, Савелий Крамаров, Валентин Манохин, Джордже Михаица, Флориан Питиш, Вера Ивлева, Евгений Герчаков, Наталья Крачковская, Марина Поляк, Виолетта Андрей, Паула Радулеску, Василе Менцель, Лилиана Петреску, Лулу Михаеску, Петя Дегтярев, Тимур Асалиев, Адриан Кристя, Матей Оприш, Т.Владимирцева, В.Кирсанов, Т.Бучучану-Ботез, П.Лисиченко, Т.Гросс, Г.Холопова, А.Иванова, В.Бабицкий, Т.Войтюк, З.Шакиров, Т.Немцова, Виолетта Андреева, Светлана Вагина, Наташа Гурушина, Яна Иванова, Артем Кретов, Эльза Кириллова, Саша Левченко, Оля Лопаева, Галя Миронова, Оксана Мерзликина, Катя Олонова, Лена Петрова, Инна Пронкина, Марина Сизова, Дима Скрынников, Дима Токар, Олег Царьков, Оля Шведова, Светлана Яшенкова, Саша Щеболева

О фильме:
Незатейливый сюжет старой сказки о Волке, который обманом выкрал у Козы ее козлят, предстаёт в новой, остроумной и занимательной музыкальной интерпретации, созданной международным творческим коллективом.

617bc93904d3dbea2ee7bd46eb3ed0ef.gif
Страна: СССР, Франция, Румыния
Студия: Мосфильм-Второе творческое объединение, Социалистическая Республика Румыния- Букурешть, Франция-Ралюкс-Фильм
Продолжительность: 01:23:10
Перевод: Не требуется

Файл
Кодек: XviD
Качество: HDTVRip
Видео: 624x352 (1.77:1), 25 fps, XviD build 73 ~1112 kbps avg, 0.20 bit/pixel
Звук: 48 kHz, MPEG Layer 3, 2 ch, ~128.00 kbps avg
Субтитры: Отсутствует

Семпл

MI
General
Complete name : E:Изготовление рипов1976.Mama.HDTVRip by shkiper.avi
Format : AVI
Format/Info : Audio Video Interleave
File size : 744 MiB
Duration : 1h 23mn
Overall bit rate : 1 250 Kbps
Writing application : VirtualDubMod 1.5.10.3 | www.virtualdub-fr.org || (build 2550/release)
Writing library : VirtualDubMod build 2550/release

Video
ID : 0
Format : MPEG-4 Visual
Format profile : Advanced Simple@L5
Format settings, BVOP : 1
Format settings, QPel : No
Format settings, GMC : No warppoints
Format settings, Matrix : Custom
Codec ID : XVID
Codec ID/Hint : XviD
Duration : 1h 23mn
Bit rate : 1 113 Kbps
Width : 624 pixels
Height : 352 pixels
Display aspect ratio : 16:9
Frame rate : 25.000 fps
Color space : YUV
Chroma subsampling : 4:2:0
Bit depth : 8 bits
Scan type : Progressive
Compression mode : Lossy
Bits/(Pixel*Frame) : 0.203
Stream size : 662 MiB (89%)
Writing library : XviD 73

Audio
ID : 1
Format : MPEG Audio
Format version : Version 1
Format profile : Layer 3
Mode : Joint stereo
Mode extension : MS Stereo
Codec ID : 55
Codec ID/Hint : MP3
Duration : 1h 23mn
Bit rate mode : Constant
Bit rate : 128 Kbps
Channel(s) : 2 channels
Sampling rate : 48.0 KHz
Compression mode : Lossy
Stream size : 76.1 MiB (10%)
Alignment : Aligned on interleaves
Interleave, duration : 40 ms (1.00 video frame)
Interleave, preload duratio : 504 ms
Writing library : LAME3.99r
Encoding settings : -m j -V 4 -q 2 -lowpass 17 -b 128
Скриншоты
0a8184c2b34681c61327ae9efcc721cb.jpeg7bbb9628bf30811dff5624ffb61c3ab6.jpeg4813fd02877f5c7e6bb6807c73893d6e.jpegf2ac5cb065b677df4623d8e02170c818.jpeg3a59d780921eaa8ebd8fec6d03dc032e.jpeg71c45849cd55a5661061c68871c60ba8.jpeg

Релиз от:
 

Вложения

Привет!

Мы группа людей которые решили помочь другим в решении их проблем, а так же пользователям с поиском самых свежих и качественных инфопродуктов. За 4 с небольшим месяца мы создали этот форум на который заходят ежедневно тысячи человек и посещаемость постоянно растёт. Мы создали панель лицензирования для защиты PHP скриптов от воровства и SEO панель для мониторинга наших сайтов и выбора верной стратегии их развития. Мы надеемся что то что мы создали пригодится Вам и возможно Вы поможете нам развиваться и совершенствоваться вместе с Вами.

Статистика форума

Темы
404.575
Сообщения
461.418
Пользователи
80.236
Новый пользователь
pulse12q

Приложения форума для iOS и Android


У ркн там нет власти ;)
Приватные разговоры
Помощь Пользователи
    Вы не присоединились ни к одной комнате.