За последнюю неделю опубликовано 49 новых материалов.
Инструкция новичку Путеводитель по форуму Прокси для Telegram Показать подсказки , это бомба!

Скачать Malik from the Outhere Brothers - You Don't Know Malik (2010) FLAC бесплатно через торрент

  • Поучаствуй (в качестве покупателя) в любых пяти совместных покупках (кроме завершённых и "Моментальных") и получи группу "Новичок" навсегда -> ссылка на раздел
  • Получай до 480 рублей за каждого приглашенного пользователя!
    представляем Вам очередное расширение партнерской программы, подробности описаны тут -> ссылка
  • 90% материалов доступно к скачиванию после простой регистрации!
    Если же ты хочешь скачивать материалы без требования оставлять отзывы то получи группу "Новичок", 10 способов повышения описаны тут -> ссылка
  • К сожалению количество битых ссылок растет и мы уже не можем их оперативно восстанавливать поэтому просим помощи у каждого нашего пользователя.
    С сегодняшнего дня, за каждую восстановленную ссылку мы заплатим Вам.
    Подробнее тут -> ссылка
  • Перенесем твои заслуги с другого ресурса!
    Мы понимаем как сложно прокачивать аккаунты на форумах, вроде раскачал аккаунт, а тут появляется ресурс в 100 раз круче но тоже с системой прокачки и снова качать аккаунт...
    Предлагаем вам перенести Ваши заслуги на другом подобном ресурсе к нам.
    Подробности описаны тут -> ссылка
  • Вы можете получать по 2.5% с каждой покупки и продажи на маркете! Подробности в теме Партнёрская программа

Torrent_Bot

Торрент-Бот
Бот форума
4 Окт 2016
93
160
20



Название: You Don't Know Malik
Исполнитель: Malik from the Outhere Brothers
Год: 2010
Жанр: Euro House
Страна: IUnited States

Продолжительность: 00:20:36
Формат/Кодек: Flac
Битрейт аудио: Lossless

Официальный сайт

Трек-лист
1 You Don't Know Malik (Last But Not Least Mix)
2 You Don't Know Malik (Last But Not Least Radio Mix)
3 You Don't Know Malik (Big Beat Boutique Mix)
4 You Don't Know Malik (Mach 3 Club Mix)


Лог проверки качества
DON'T MODIFY THIS FILE

-----------------------

PERFORMER: auCDtect Task Manager, ver. 1.6.0 RC1 build 1.6.0.1
Copyright (c) 2008-2010 y-soft. All rights reserved
http://y-soft.org

ANALYZER: auCDtect: CD records authenticity detector, version 0.8.2
Copyright (c) 2004 Oleg Berngardt. All rights reserved.
Copyright (c) 2004 Alexander Djourik. All rights reserved.

FILE: 04 You Don't Know Malik (Mach 3 Club Mix).flac
Size: 29409628 Hash: 38460677726AAB26CCF4AA42CDEEC610 Accuracy: -m0
Conclusion: CDDA 99%
Signature: B18287B57EBD862F156F4C788ABDCC2252EDDB3D
FILE: 03 You Don't Know Malik (Big Beat Boutique Mix).flac
Size: 32769531 Hash: 665289A7FC7BC2F8B4F2A78C25F43443 Accuracy: -m0
Conclusion: CDDA 100%
Signature: 1E6CA08ED1C699157488FF2700D5158B2ABB134B
FILE: 02 You Don't Know Malik (Last But Not Least Radio Edit).flac
Size: 27644477 Hash: C9E636501C9946891A2BFE0EB125A994 Accuracy: -m0
Conclusion: CDDA 100%
Signature: 0D92C368DE68A8973F57678F9AE41CC9FC4E36CC
FILE: 01 You Don't Know Malik (Last But Not Least Mix).flac
Size: 17456507 Hash: 22E4F834214AE504BC99E82CDB020A9C Accuracy: -m0
Conclusion: CDDA 99%
Signature: 6F8EECBBD06ABD59CE30497818A8CFCE2214BA52

Замер динамического диапазона:
Analyzed folder: D:ВидеоклипыconverterВидеоклипыЗагрузкиDOWNLOADSMalik from the Outhere BrothersYou Don't Know Malik (Album)
----------------------------------------------------------------------------------------------
DR Peak RMS Filename
----------------------------------------------------------------------------------------------

DR5 -18.06 dB -24.64 dB 01 You Don't Know Malik (Last But Not Least Mix).wav
DR5 -18.06 dB -24.81 dB 02 You Don't Know Malik (Last But Not Least Radio Edit).wav
DR5 -18.06 dB -25.75 dB 03 You Don't Know Malik (Big Beat Boutique Mix).wav
DR6 -18.06 dB -25.93 dB 04 You Don't Know Malik (Mach 3 Club Mix).wav
----------------------------------------------------------------------------------------------

Number of files: 4
Official DR value: DR5

==============================================================================================
 

Вложения

  • 17,3 KB Просмотры: 0
    Личеров 0
    Сидеров 0
    Файлов 5
    Объем 102,4 MB

Привет!

Мы группа людей которые решили помочь другим в решении их проблем, а так же пользователям с поиском самых свежих и качественных инфопродуктов. За 4 с небольшим месяца мы создали этот форум на который заходят ежедневно тысячи человек и посещаемость постоянно растёт. Мы создали панель лицензирования для защиты PHP скриптов от воровства и SEO панель для мониторинга наших сайтов и выбора верной стратегии их развития. Мы надеемся что то что мы создали пригодится Вам и возможно Вы поможете нам развиваться и совершенствоваться вместе с Вами.

Статистика форума

Темы
406.640
Сообщения
465.116
Пользователи
84.573
Новый пользователь
sobolsm

Приложения форума для iOS и Android


У ркн там нет власти ;)
Приватные разговоры
Помощь Пользователи
    Вы не присоединились ни к одной комнате.