За последнюю неделю опубликовано 38 новых материалов.
Инструкция новичку Путеводитель по форуму Прокси для Telegram Показать подсказки , это бомба!

Скачать Маленькие смерти / Little Deaths (2011) BDRemux 1080р | P, L1 бесплатно через торрент

  • Поучаствуй (в качестве покупателя) в любых пяти совместных покупках (кроме завершённых и "Моментальных") и получи группу "Новичок" навсегда -> ссылка на раздел
  • Получай до 480 рублей за каждого приглашенного пользователя!
    представляем Вам очередное расширение партнерской программы, подробности описаны тут -> ссылка
  • 90% материалов доступно к скачиванию после простой регистрации!
    Если же ты хочешь скачивать материалы без требования оставлять отзывы то получи группу "Новичок", 10 способов повышения описаны тут -> ссылка
  • К сожалению количество битых ссылок растет и мы уже не можем их оперативно восстанавливать поэтому просим помощи у каждого нашего пользователя.
    С сегодняшнего дня, за каждую восстановленную ссылку мы заплатим Вам.
    Подробнее тут -> ссылка
  • Перенесем твои заслуги с другого ресурса!
    Мы понимаем как сложно прокачивать аккаунты на форумах, вроде раскачал аккаунт, а тут появляется ресурс в 100 раз круче но тоже с системой прокачки и снова качать аккаунт...
    Предлагаем вам перенести Ваши заслуги на другом подобном ресурсе к нам.
    Подробности описаны тут -> ссылка
  • Вы можете получать по 2.5% с каждой покупки и продажи на маркете! Подробности в теме Партнёрская программа
Если Вы не хотите скачивать, Вы всегда можетепосмотретьонлайн, просто нажмите кнопку ниже :

Открыть плеер

Torrent_Bot

Торрент-Бот
Бот форума
4 Окт 2016
93
156
20
Информация о фильме
Название: Маленькие смерти
Оригинальное название: Little Deaths
Год выхода: 2011
Жанр: ужасы
Режиссер: Шон Хоган, Эндрю Паркинсон, Саймон Рамли
В ролях: Люк Де Лэйси, Холли Лукас, Сьюбан Харрисон, Джеймс Оливер Уитли, Марк Беннетт, Дженнифер Хандорф, Ник Харвуд, Майк Хьюит, Джеймс Хинсон, Эдди Хоган

О фильме: Фильм о трех историях, объединенных двойной темой секса и смерти. Первая история о молодой парочке, которая заходит слишком далеко в своих ролевых играх, основанных на принципах садомазохизма, вторая о том, как проститутка и наркоманка Джен стала жертвой эксперимента своего лечащего врача, возомнившего себя эсесовским садистом. Третья о семейной парочке, заманивающей в свой дом бездомных детей (ради христианского очищения) и использующих их в своих сексуальных играх. На их беду, последняя жертва оказывается вовсе не мясом для бойни, но охотником, желающим поиграть со своими мучителями.



Страна: Великобритания
Продолжительность: 01:34:23
Перевод 1: Профессиональный (многоголосый, закадровый) R5
Перевод 2: Любительский (одноголосый закадровый) VANO
Субтитры: русские, английские, немецкие
Оригинальная аудиодорожка: английский

Файл
Качество: BDRemux 1080р
Видео: MPEG-4 AVC Video / 23492 kbps / 1080p / 24 fps / 16:9 / High Profile 4.1
Аудио 1: Russian: 48 kHz, AC3 Dolby Digital, 2/0 (L,R), ~192.00 kbps avg - [R5]
Аудио 2: Russian: 48 kHz, AC3 Dolby Digital, 2/0 (L,R), ~192.00 kbps avg - [VANO]
Аудио 3: English: DTS-HD Master Audio 5.1 / (48 kHz / 1486 kbps / 16-bit) (DTS Core: 5.1 / 48 kHz / 768 kbps / 16-bit) - [Original]

Скриншоты
MediaInfo
Format : Matroska
Format version : Version 2
File size : 16.7 GiB
Duration : 1h 34mn
Overall bit rate mode : Variable
Overall bit rate : 25.3 Mbps
Movie name : Arifis for GORESEWAGE
Encoded date : UTC 2013-07-25 16:57:39
Writing application : mkvmerge v5.2.1 ('A Far Off Place') built on Jan 2 2012 23:21:10
Writing library : libebml v1.2.3 + libmatroska v1.3.0

Video
ID : 1
Format : AVC
Format/Info : Advanced Video Codec
Format profile : [email protected]
Format settings, CABAC : Yes
Format settings, ReFrames : 2 frames
Format settings, GOP : M=1, N=5
Codec ID : V_MPEG4/ISO/AVC
Duration : 1h 34mn
Bit rate mode : Variable
Maximum bit rate : 32.2 Mbps
Width : 1 920 pixels
Height : 1 080 pixels
Display aspect ratio : 16:9
Frame rate mode : Constant
Frame rate : 24.000 fps
Color space : YUV
Chroma subsampling : 4:2:0
Bit depth : 8 bits
Scan type : Progressive
Title : Little Deaths (Arifis for GORESEWAGE)
Default : Yes
Forced : No

Audio #1
ID : 2
Format : AC-3
Format/Info : Audio Coding 3
Mode extension : CM (complete main)
Format settings, Endianness : Big
Codec ID : A_AC3
Duration : 1h 34mn
Bit rate mode : Constant
Bit rate : 192 Kbps
Channel(s) : 2 channels
Channel positions : Front: L R
Sampling rate : 48.0 KHz
Bit depth : 16 bits
Compression mode : Lossy
Stream size : 130 MiB (1%)
Title : AC3 2.0 @ 192 kbps - MVO, R5
Language : Russian
Default : Yes
Forced : No

Audio #2
ID : 3
Format : AC-3
Format/Info : Audio Coding 3
Mode extension : CM (complete main)
Format settings, Endianness : Big
Codec ID : A_AC3
Duration : 1h 34mn
Bit rate mode : Constant
Bit rate : 192 Kbps
Channel(s) : 2 channels
Channel positions : Front: L R
Sampling rate : 48.0 KHz
Bit depth : 16 bits
Compression mode : Lossy
Stream size : 130 MiB (1%)
Title : AC3 2.0 @ 192 kbps - VO, VANO
Language : Russian
Default : No
Forced : No

Audio #3
ID : 4
Format : DTS
Format/Info : Digital Theater Systems
Format profile : MA / Core
Mode : 16
Format settings, Endianness : Big
Codec ID : A_DTS
Duration : 1h 34mn
Bit rate mode : Variable
Bit rate : Unknown / 768 Kbps
Channel(s) : 6 channels
Channel positions : Front: L C R, Side: L R, LFE
Sampling rate : 48.0 KHz
Bit depth : 16 bits
Compression mode : Lossless / Lossy
Title : DTS-HD MA 5.1 Original @ 1486 kbps
Language : English
Default : No
Forced : No

Text #1
ID : 5
Format : UTF-8
Codec ID : S_TEXT/UTF8
Codec ID/Info : UTF-8 Plain Text
Title : Full Rus
Language : Russian
Default : No
Forced : No

Text #2
ID : 6
Format : UTF-8
Codec ID : S_TEXT/UTF8
Codec ID/Info : UTF-8 Plain Text
Title : Full Eng
Language : English
Default : No
Forced : No

Text #3
ID : 7
Format : UTF-8
Codec ID : S_TEXT/UTF8
Codec ID/Info : UTF-8 Plain Text
Title : Full Ger
Language : German
Default : No
Forced : No

Menu
00:00:00.000 : :Chapter 01
00:00:40.625 : :Chapter 02
00:10:57.166 : :Chapter 03
00:18:55.833 : :Chapter 04
00:27:15.458 : :Chapter 05
00:38:17.833 : :Chapter 06
00:46:53.000 : :Chapter 07
00:58:06.000 : :Chapter 08
01:03:30.083 : :Chapter 09
01:12:18.541 : :Chapter 10
01:21:16.166 : :Chapter 11
01:31:04.541 : :Chapter 12
 

Вложения

  • 84,6 KB Просмотры: 1
    Личеров 0
    Сидеров 0
    Файлов 1
    Объем 16,7 GB

Привет!

Мы группа людей которые решили помочь другим в решении их проблем, а так же пользователям с поиском самых свежих и качественных инфопродуктов. За 4 с небольшим месяца мы создали этот форум на который заходят ежедневно тысячи человек и посещаемость постоянно растёт. Мы создали панель лицензирования для защиты PHP скриптов от воровства и SEO панель для мониторинга наших сайтов и выбора верной стратегии их развития. Мы надеемся что то что мы создали пригодится Вам и возможно Вы поможете нам развиваться и совершенствоваться вместе с Вами.

Статистика форума

Темы
406.572
Сообщения
464.793
Пользователи
83.546
Новый пользователь
Sbas

Приложения форума для iOS и Android


У ркн там нет власти ;)
Приватные разговоры
Помощь Пользователи
    Вы не присоединились ни к одной комнате.