За последнюю неделю опубликовано 59 новых материалов.
Инструкция новичку Путеводитель по форуму Прокси для Telegram Показать подсказки , это бомба!

Скачать Маленькая Одесса / Little Odessa (1994) WEB-DLRip-AVC | P, A бесплатно через торрент

  • Поучаствуй (в качестве покупателя) в любых пяти совместных покупках (кроме завершённых и "Моментальных") и получи группу "Новичок" навсегда -> ссылка на раздел
  • Получай до 480 рублей за каждого приглашенного пользователя!
    представляем Вам очередное расширение партнерской программы, подробности описаны тут -> ссылка
  • 90% материалов доступно к скачиванию после простой регистрации!
    Если же ты хочешь скачивать материалы без требования оставлять отзывы то получи группу "Новичок", 10 способов повышения описаны тут -> ссылка
  • К сожалению количество битых ссылок растет и мы уже не можем их оперативно восстанавливать поэтому просим помощи у каждого нашего пользователя.
    С сегодняшнего дня, за каждую восстановленную ссылку мы заплатим Вам.
    Подробнее тут -> ссылка
  • Перенесем твои заслуги с другого ресурса!
    Мы понимаем как сложно прокачивать аккаунты на форумах, вроде раскачал аккаунт, а тут появляется ресурс в 100 раз круче но тоже с системой прокачки и снова качать аккаунт...
    Предлагаем вам перенести Ваши заслуги на другом подобном ресурсе к нам.
    Подробности описаны тут -> ссылка
  • Вы можете получать по 2.5% с каждой покупки и продажи на маркете! Подробности в теме Партнёрская программа
Если Вы не хотите скачивать, Вы всегда можетепосмотретьонлайн, просто нажмите кнопку ниже :

Открыть плеер

Torrent_Bot

Торрент-Бот
Бот форума
4 Окт 2016
92
163
20



Информация о фильме
Название: Маленькая Одесса
Оригинальное название: Little Odessa
Год выхода: 1994
Жанр: драма, криминал
Режиссер: Джеймс Грэй
В ролях: Тим Рот, Эдвард Ферлонг, Мойра Келли, Ванесса Редгрейв, Пол Гилфойл, Наталья Андрейченко, Максимилиан Шелл, Давид Вадим, Мина Берн, Борис МакГайвер

О фильме:
Профессиональный убийца Йосиф Шапира получает задание «убрать» человека в своем родном районе, где живут его отец, умирающая мать и младший брат. Отец давно отказался от сына-убийцы, так как знает о роде его занятий, но брат и мать любят его. Да и отец не может окончательно вычеркнуть его из сердца.

Встреча членов этой семьи заканчивается трагедией. Йосифу приходится убить сына местного «авторитета», считавшего, что он мертв, так как тот увидел его на улице, а Йосиф ни в коем случае не мог допустить, чтобы об этом узнал папа покойного — это было бы равносильно смерти.



Страна: США
Студия: Fine Line Features, Live Entertainment, New Line Cinema
Продолжительность: 01:38:11
Перевод: Профессиональный (многоголосый, закадровый), авторский
Субтитры: Russian, English

Файл
Формат: Matroska
Качество: WEB-DLRip-AVC
Видео: 1128x480 at 23.976 fps, [email protected], ~1477 kbps
Аудио #1: 48 kHz, AC3 Dolby Digital, 3/2 (L,C,R,l,r) + LFE ch, ~448 kbps avg |MVO, Сонотек|
Аудио #2: 48 kHz, AC3 Dolby Digital, 2/0 (L,R) ch, ~192 kbps avg |AVO, Ю.Сербин|
Формат субтитров: softsub (SRT)

***Релиз от:-=DoMiNo=-

M/I
x264 [info]: frame I:768 Avg QP:15.83 size: 49695
x264 [info]: frame P:30558 Avg QP:17.22 size: 16794
x264 [info]: frame B:109938 Avg QP:19.27 size: 4879
x264 [info]: consecutive B-frames: 0.9% 1.3% 3.0% 45.0% 14.4% 25.3% 4.1% 2.6% 1.0% 0.5% 0.3% 0.3% 0.2%

General
Format : Matroska
Format version : Version 4
File size : 1.45 GiB
Duration : 1 h 38 min
Overall bit rate : 2 118 kb/s
Movie name : Маленькая Одесса.(1994).WEB-DLRip-AVC.[-=DoMiNo=-]
Encoded date : UTC 2020-06-25 20:13:43
Writing application : mkvmerge v47.0.0 ('Black Flag') 64-bit
Writing library : libebml v1.3.10 + libmatroska v1.5.2
Cover : Yes
Attachments : cover.png / cover 2.jpg

Video
ID : 1
Format : AVC
Format/Info : Advanced Video Codec
Format profile : [email protected]
Format settings : CABAC / 12 Ref Frames
Format settings, CABAC : Yes
Format settings, Reference : 12 frames
Codec ID : V_MPEG4/ISO/AVC
Duration : 1 h 38 min
Bit rate : 1 477 kb/s
Width : 1 128 pixels
Height : 480 pixels
Display aspect ratio : 2.35:1
Frame rate mode : Constant
Frame rate : 23.976 (24000/1001) FPS
Color space : YUV
Chroma subsampling : 4:2:0
Bit depth : 8 bits
Scan type : Progressive
Bits/(Pixel*Frame) : 0.114
Stream size : 1.01 GiB (70%)
Title : -=DoMiNo=-
Writing library : x264 core 160 r3009 4c9b076
Encoding settings : cabac=1 / ref=12 / deblock=1:-1:-1 / analyse=0x3:0x131 / me=umh / subme=10 / psy=1 / psy_rd=1.00:0.20 / mixed_ref=1 / me_range=32 / chroma_me=1 / trellis=2 / 8x8dct=1 / cqm=0 / deadzone=21,11 / fast_pskip=1 / chroma_qp_offset=-3 / threads=6 / lookahead_threads=1 / sliced_threads=0 / nr=0 / decimate=1 / interlaced=0 / bluray_compat=0 / constrained_intra=0 / bframes=12 / b_pyramid=2 / b_adapt=2 / b_bias=0 / direct=1 / weightb=1 / open_gop=0 / weightp=2 / keyint=250 / keyint_min=23 / scenecut=40 / intra_refresh=0 / rc=crf / mbtree=0 / crf=19.5 / qcomp=0.60 / qpmin=0 / qpmax=69 / qpstep=4 / ip_ratio=1.40 / pb_ratio=1.30 / aq=1:1.00
Language : English
Default : Yes
Forced : No
Color range : Limited
Color primaries : BT.709
Transfer characteristics : BT.709
Matrix coefficients : BT.709

Audio #1
ID : 2
Format : AC-3
Format/Info : Audio Coding 3
Commercial name : Dolby Digital
Codec ID : A_AC3
Duration : 1 h 38 min
Bit rate mode : Constant
Bit rate : 448 kb/s
Channel(s) : 6 channels
Channel layout : L R C LFE Ls Rs
Sampling rate : 48.0 kHz
Frame rate : 31.250 FPS (1536 SPF)
Compression mode : Lossy
Stream size : 314 MiB (21%)
Title : MVO / СОНОТЭК
Language : Russian
Service kind : Complete Main
Default : Yes
Forced : No

Audio #2
ID : 3
Format : AC-3
Format/Info : Audio Coding 3
Commercial name : Dolby Digital
Codec ID : A_AC3
Duration : 1 h 38 min
Bit rate mode : Constant
Bit rate : 192 kb/s
Channel(s) : 2 channels
Channel layout : L R
Sampling rate : 48.0 kHz
Frame rate : 31.250 FPS (1536 SPF)
Compression mode : Lossy
Stream size : 135 MiB (9%)
Title : AVO / Юрий Сербин
Language : Russian
Service kind : Complete Main
Default : No
Forced : No

Text #1
ID : 4
Format : UTF-8
Codec ID : S_TEXT/UTF8
Codec ID/Info : UTF-8 Plain Text
Duration : 1 h 31 min
Bit rate : 51 b/s
Count of elements : 698
Stream size : 34.8 KiB (0%)
Title : SDH
Language : Russian
Default : No
Forced : No

Text #2
ID : 5
Format : UTF-8
Codec ID : S_TEXT/UTF8
Codec ID/Info : UTF-8 Plain Text
Duration : 1 h 32 min
Bit rate : 27 b/s
Count of elements : 641
Stream size : 18.3 KiB (0%)
Title : Original
Language : English
Default : No
Forced : No

Menu
00:00:00.000 : en:Chapter 1
00:06:45.405 : en:Chapter 2
00:16:05.339 : en:Chapter 3
00:24:58.997 : en:Chapter 4
00:29:57.420 : en:Chapter 5
00:38:16.669 : en:Chapter 6
00:47:42.234 : en:Chapter 7
00:58:08.485 : en:Chapter 8
01:07:54.695 : en:Chapter 9
01:14:40.100 : en:Chapter 10
01:23:26.876 : en:Chapter 11
01:30:09.153 : en:Chapter 12
Скриншоты
 

Вложения

  • 59,2 KB Просмотры: 0
    Личеров 0
    Сидеров 0
    Файлов 1
    Объем 1,5 GB

Привет!

Мы группа людей которые решили помочь другим в решении их проблем, а так же пользователям с поиском самых свежих и качественных инфопродуктов. За 4 с небольшим месяца мы создали этот форум на который заходят ежедневно тысячи человек и посещаемость постоянно растёт. Мы создали панель лицензирования для защиты PHP скриптов от воровства и SEO панель для мониторинга наших сайтов и выбора верной стратегии их развития. Мы надеемся что то что мы создали пригодится Вам и возможно Вы поможете нам развиваться и совершенствоваться вместе с Вами.

Статистика форума

Темы
406.678
Сообщения
465.125
Пользователи
84.737
Новый пользователь
Mo0dak

Приложения форума для iOS и Android


У ркн там нет власти ;)
Приватные разговоры
Помощь Пользователи
    Вы не присоединились ни к одной комнате.