За последнюю неделю опубликовано 20 новых материалов.
Инструкция новичку Путеводитель по форуму Прокси для Telegram Показать подсказки , это бомба!

Скачать Малефисента: Владычица тьмы / Maleficent: Mistress of Evil (2019) HDRip-AVC от ExKinoRay | iTunes бесплатно через торрент

  • Поучаствуй (в качестве покупателя) в любых пяти совместных покупках (кроме завершённых и "Моментальных") и получи группу "Новичок" навсегда -> ссылка на раздел
  • Получай до 480 рублей за каждого приглашенного пользователя!
    представляем Вам очередное расширение партнерской программы, подробности описаны тут -> ссылка
  • 90% материалов доступно к скачиванию после простой регистрации!
    Если же ты хочешь скачивать материалы без требования оставлять отзывы то получи группу "Новичок", 10 способов повышения описаны тут -> ссылка
  • К сожалению количество битых ссылок растет и мы уже не можем их оперативно восстанавливать поэтому просим помощи у каждого нашего пользователя.
    С сегодняшнего дня, за каждую восстановленную ссылку мы заплатим Вам.
    Подробнее тут -> ссылка
  • Перенесем твои заслуги с другого ресурса!
    Мы понимаем как сложно прокачивать аккаунты на форумах, вроде раскачал аккаунт, а тут появляется ресурс в 100 раз круче но тоже с системой прокачки и снова качать аккаунт...
    Предлагаем вам перенести Ваши заслуги на другом подобном ресурсе к нам.
    Подробности описаны тут -> ссылка
  • Вы можете получать по 2.5% с каждой покупки и продажи на маркете! Подробности в теме Партнёрская программа
Если Вы не хотите скачивать, Вы всегда можетепосмотретьонлайн, просто нажмите кнопку ниже :

Открыть плеер

Torrent_Bot

Торрент-Бот
Бот форума
4 Окт 2016
122
116
20



Информация о фильме
Название: Малефисента: Владычица тьмы
Оригинальное название: Maleficent: Mistress of Evil
Год выпуска: 2019
Жанр: Фэнтези, приключения, семейный
Режиссер: Хоаким Роннинг
В ролях: Анджелина Джоли, Эль Фаннинг, Харрис Дикинсон, Сэм Райли, Имелда Стонтон, Лесли Мэнвилл, Джуно Темпл, Мишель Пфайффер, Чьюител Эджиофор, Эд Скрейн, Кае Александр, Дженн Мюррей, Дэвид Гяси, Тереза Махони, Джудит Шекони, Роберт Линдсей, Бернарду Сантуш, Мияви, Фернанда Диниз, Алберт Тан, Чарльз Бертхоуд, Ричард Кип, Джеллиан Алтея

О фильме:
Продолжение истории о темной фее Малефисенте и принцессе Авроре, действие которого разворачивается спустя несколько лет после событий первой части. Аврора соглашается выйти замуж за принца Филипа, и родители жениха — король Джон и королева Ингрит — приглашают будущую невестку вместе с ее крестной Малефисентой на ужин в замок. Однако вскоре оказывается, что у королевы совсем другие планы на будущее не только ее сына, но и всего волшебного мира.



Страна: США, Великобритания
Студия: Roth Films, Walt Disney Pictures
Продолжительность: 01:58:50
Перевод: Дублированный | iTunes

Файл
Формат: MKV
Качество: HDRip-AVC
Видео: MPEG-4 AVC, 720x300, - 800 Кбит/с
Аудио: AAC-HE, 2 ch, - 76 Кбит/с
Субтитры: Русские, английские

MI
Общее
Уникальный идентификатор : 28905487952828790652306257363829860383 (0x15BEFE9646F514BAE16C256BB55D281F)
Полное имя : D:MOVIESMaleficent.Mistress.of.Evil.2019.HDRip-AVC.ExKinoRay.mkv
Формат : Matroska
Версия формата : Version 4 / Version 2
Размер файла : 747 Мбайт
Продолжительность : 1 ч. 58 м.
Общий поток : 878 Кбит/сек
Дата кодирования : UTC 2020-01-02 14:17:30
Программа кодирования : mkvmerge v35.0.0 ('All The Love In The World') 64-bit
Библиотека кодирования : libebml v1.3.9 + libmatroska v1.5.2

Видео
Идентификатор : 1
Формат : AVC
Формат/Информация : Advanced Video Codec
Профиль формата : High@L4.1
Параметр CABAC формата : Да
Параметр RefFrames формата : 12 кадров
Идентификатор кодека : V_MPEG4/ISO/AVC
Продолжительность : 1 ч. 58 м.
Битрейт : 800 Кбит/сек
Ширина : 720 пикселей
Высота : 300 пикселей
Соотношение сторон : 2,40:1
Режим частоты кадров : Постоянный
Частота кадров : 23,976 (24000/1001) кадра/сек
Цветовое пространство : YUV
Субдискретизация насыщенности : 4:2:0
Битовая глубина : 8 бит
Тип развёртки : Прогрессивная
Бит/(Пиксели*Кадры) : 0.154
Размер потока : 680 Мбайт (91%)
Библиотека кодирования : x264 core 152 r2851 ba24899
Настройки программы : cabac=1 / ref=12 / deblock=1:-3:-3 / analyse=0x3:0x133 / me=umh / subme=11 / psy=1 / psy_rd=1.00:0.11 / mixed_ref=1 / me_range=32 / chroma_me=1 / trellis=2 / 8x8dct=1 / cqm=0 / deadzone=21,11 / fast_pskip=0 / chroma_qp_offset=-3 / threads=6 / lookahead_threads=1 / sliced_threads=0 / nr=0 / decimate=0 / interlaced=0 / bluray_compat=0 / constrained_intra=0 / bframes=12 / b_pyramid=2 / b_adapt=2 / b_bias=0 / direct=3 / weightb=1 / open_gop=0 / weightp=2 / keyint=240 / keyint_min=23 / scenecut=40 / intra_refresh=0 / rc=2pass / mbtree=0 / bitrate=800 / ratetol=1.0 / qcomp=0.60 / qpmin=0 / qpmax=69 / qpstep=4 / cplxblur=20.0 / qblur=0.5 / ip_ratio=1.40 / pb_ratio=1.30 / aq=1:1.00
Default : Да
Forced : Нет

Аудио
Идентификатор : 2
Формат : AAC
Формат/Информация : Advanced Audio Codec
Профиль формата : HE-AAC / LC
Идентификатор кодека : A_AAC
Продолжительность : 1 ч. 58 м.
Битрейт : 76,0 Кбит/сек
Каналы : 2 канала
Расположение каналов : Front: L R
Частота : 48,0 КГц / 24,0 КГц
Частота кадров : 23,438 кадра/сек (1024 SPF)
Метод сжатия : С потерями
Задержка видео : 31 мс.
Размер потока : 64,6 Мбайт (9%)
Default : Да
Forced : Нет

Текст #1
Идентификатор : 3
Формат : UTF-8
Идентификатор кодека : S_TEXT/UTF8
Идентификатор кодека/Информация : UTF-8 Plain Text
Продолжительность : 1 ч. 57 м.
Битрейт : 47 бит/сек
ElementCount : 1011
Размер потока : 40,7 Кбайт (0%)
Заголовок : Full
Язык : Russian
Default : Нет
Forced : Нет

Текст #2
Идентификатор : 4
Формат : UTF-8
Идентификатор кодека : S_TEXT/UTF8
Идентификатор кодека/Информация : UTF-8 Plain Text
Продолжительность : 1 ч. 50 м.
Битрейт : 69 бит/сек
ElementCount : 1560
Размер потока : 56,4 Кбайт (0%)
Заголовок : SDH
Язык : Russian
Default : Нет
Forced : Нет

Текст #3
Идентификатор : 5
Формат : UTF-8
Идентификатор кодека : S_TEXT/UTF8
Идентификатор кодека/Информация : UTF-8 Plain Text
Продолжительность : 1 ч. 49 м.
Битрейт : 31 бит/сек
ElementCount : 1097
Размер потока : 25,4 Кбайт (0%)
Заголовок : Full
Язык : English
Default : Нет
Forced : Нет

Текст #4
Идентификатор : 6
Формат : UTF-8
Идентификатор кодека : S_TEXT/UTF8
Идентификатор кодека/Информация : UTF-8 Plain Text
Продолжительность : 1 ч. 53 м.
Битрейт : 45 бит/сек
ElementCount : 1609
Размер потока : 37,3 Кбайт (0%)
Заголовок : SDH
Язык : English
Default : Нет
Forced : Нет

Меню
00:00:00.000 : en:Chapter 01
00:06:47.907 : en:Chapter 02
00:09:11.676 : en:Chapter 03
00:14:45.551 : en:Chapter 04
00:19:27.833 : en:Chapter 05
00:23:10.556 : en:Chapter 06
00:33:51.905 : en:Chapter 07
00:39:10.265 : en:Chapter 08
00:42:19.579 : en:Chapter 09
00:48:31.992 : en:Chapter 10
00:52:44.745 : en:Chapter 11
00:57:15.140 : en:Chapter 12
00:59:26.146 : en:Chapter 13
01:05:47.569 : en:Chapter 14
01:09:31.751 : en:Chapter 15
01:19:07.242 : en:Chapter 16
01:22:48.547 : en:Chapter 17
01:29:09.219 : en:Chapter 18
01:35:00.653 : en:Chapter 19
01:44:26.510 : en:Chapter 20
01:51:06.994 : en:Chapter 21
Скриншоты

 

Вложения

  • 15,6 KB Просмотры: 0
    Личеров 0
    Сидеров 0
    Файлов 1
    Объем 746,5 MB

Привет!

Мы группа людей которые решили помочь другим в решении их проблем, а так же пользователям с поиском самых свежих и качественных инфопродуктов. За 4 с небольшим месяца мы создали этот форум на который заходят ежедневно тысячи человек и посещаемость постоянно растёт. Мы создали панель лицензирования для защиты PHP скриптов от воровства и SEO панель для мониторинга наших сайтов и выбора верной стратегии их развития. Мы надеемся что то что мы создали пригодится Вам и возможно Вы поможете нам развиваться и совершенствоваться вместе с Вами.

Статистика форума

Темы
385.057
Сообщения
430.440
Пользователи
63.085
Новый пользователь
Pelageya

Приложения форума для iOS и Android


У ркн там нет власти ;)
Приватные разговоры
Помощь Пользователи
    Вы не присоединились ни к одной комнате.