За последнюю неделю опубликовано 148 новых материалов.
Инструкция новичку Путеводитель по форуму Прокси для Telegram Показать подсказки , это бомба!

Скачать Малефисента: Владычица тьмы / Maleficent: Mistress of Evil (2019) BDRip 1080p от qqss44 & MegaPeer | iTunes бесплатно через торрент

  • Поучаствуй (в качестве покупателя) в любых пяти совместных покупках (кроме завершённых и "Моментальных") и получи группу "Новичок" навсегда -> ссылка на раздел
  • Получай до 480 рублей за каждого приглашенного пользователя!
    представляем Вам очередное расширение партнерской программы, подробности описаны тут -> ссылка
  • 90% материалов доступно к скачиванию после простой регистрации!
    Если же ты хочешь скачивать материалы без требования оставлять отзывы то получи группу "Новичок", 10 способов повышения описаны тут -> ссылка
  • К сожалению количество битых ссылок растет и мы уже не можем их оперативно восстанавливать поэтому просим помощи у каждого нашего пользователя.
    С сегодняшнего дня, за каждую восстановленную ссылку мы заплатим Вам.
    Подробнее тут -> ссылка
  • Перенесем твои заслуги с другого ресурса!
    Мы понимаем как сложно прокачивать аккаунты на форумах, вроде раскачал аккаунт, а тут появляется ресурс в 100 раз круче но тоже с системой прокачки и снова качать аккаунт...
    Предлагаем вам перенести Ваши заслуги на другом подобном ресурсе к нам.
    Подробности описаны тут -> ссылка
  • Вы можете получать по 2.5% с каждой покупки и продажи на маркете! Подробности в теме Партнёрская программа
Если Вы не хотите скачивать, Вы всегда можетепосмотретьонлайн, просто нажмите кнопку ниже :

Открыть плеер

Torrent_Bot

Торрент-Бот
Бот форума
4 Окт 2016
124
95
20




Анонсы 1080p от qqss44



Информация о фильме
Название: Малефисента: Владычица тьмы
Оригинальное название: Maleficent: Mistress of Evil
Год выпуска: 2019
Жанр: Фэнтези, приключения, семейный
Режиссер: Хоаким Роннинг
В ролях: Анджелина Джоли, Элль Фэннинг, Харрис Дикинсон, Мишель Пфайффер, Сэм Райли, Чиветел Эджиофор, Эд Скрейн, Роберт Линдсей, Дэвид Гяси, Дженн Мюррэй

О фильме:
Действие происходит через несколько лет после того, как Малефисента наложила злые чары на принцессу Аврору. Фильм рассказывает про сложную взаимосвязь между тёмной феей и будущей королевой, о новых союзниках и противниках в деле защиты волшебного леса и магических существах, которые в нем обитают.



Страна: США, Великобритания
Студия: Roth Films, Walt Disney Pictures
Продолжительность: 01:58:50
Перевод: Дублированный | iTunes

Файл
Формат: MKV, BDRip 1080p
Видео: MPEG-4 AVC, 8700 Кбит/с, 1920x804
Aудио#1: [RUS] AC3 | 48 KHz | 5.1 (Front: L С R Side: L R) + LFE | ~384 kbps
Субтитры: русские полные (отключаемые, srt)
Релиз от:


Скриншоты
МИ
Общее
Уникальный идентификатор: 225439428503504563239584614018431369286 (0xA99A0DFA44BD6448BDC7CD95E38CC046)
Полное имя: H:Maleficent.Mistress.of.Evil..(2019).BDRip-1080p.MegaPeer.(qqss44).mkv
Формат: Matroska
Версия формата: Version 2
Размер файла: 7,54 Гбайт
Продолжительность: 1 ч. 58 м.
Общий поток: 9080 Кбит/сек
Название фильма: Maleficent.Mistress.of.Evil..(2019).BDRip-1080p.MegaPeer.(qqss44)
Дата кодирования: UTC 2020-01-06 19:03:22
Программа кодирования: mkvmerge v7.8.0 ('River Man') 32bit built on Apr 3 2015 12:11:22
Библиотека кодирования: libebml v1.3.1 + libmatroska v1.4.2

Видео
Идентификатор: 1
Формат: AVC
Формат/Информация: Advanced Video Codec
Профиль формата: High@L4.1
Параметр CABAC формата: Да
Параметр ReFrames формата: 5 кадров
Идентификатор кодека: V_MPEG4/ISO/AVC
Продолжительность: 1 ч. 58 м.
Битрейт: 8700 Кбит/сек
Ширина: 1920 пикселей
Высота: 804 пикселя
Соотношение сторон: 2,40:1
Режим частоты кадров: Постоянный
Частота кадров: 23,976 (24000/1001) кадра/сек
Цветовое пространство: YUV
Субдискретизация насыщенности: 4:2:0
Битовая глубина: 8 бит
Тип развёртки: Прогрессивная
Бит/(Пиксели*Кадры): 0.235
Размер потока: 7,07 Гбайт (94%)
Библиотека кодирования: x264 core 152 r2851 ba24899
Настройки программы: cabac=1 / ref=5 / deblock=1:-3:-3 / analyse=0x3:0x113 / me=umh / subme=11 / psy=1 / psy_rd=1.00:0.00 / mixed_ref=1 / me_range=32 / chroma_me=1 / trellis=2 / 8x8dct=1 / cqm=0 / deadzone=21,11 / fast_pskip=0 / chroma_qp_offset=-2 / threads=12 / lookahead_threads=2 / sliced_threads=0 / nr=0 / decimate=0 / interlaced=0 / bluray_compat=0 / constrained_intra=0 / bframes=9 / b_pyramid=2 / b_adapt=2 / b_bias=0 / direct=3 / weightb=1 / open_gop=0 / weightp=2 / keyint=250 / keyint_min=23 / scenecut=40 / intra_refresh=0 / rc_lookahead=40 / rc=2pass / mbtree=0 / bitrate=8700 / ratetol=1.0 / qcomp=0.65 / qpmin=0 / qpmax=69 / qpstep=4 / cplxblur=20.0 / qblur=0.5 / vbv_maxrate=50000 / vbv_bufsize=62500 / nal_hrd=none / filler=0 / ip_ratio=1.40 / pb_ratio=1.30 / aq=3:0.70
Язык: English
Default: Да
Forced: Нет

Аудио
Идентификатор: 2
Формат: AC-3
Формат/Информация: Audio Coding 3
Расширение режима: CM (complete main)
Параметр Endianness формата: Big
Идентификатор кодека: A_AC3
Продолжительность: 1 ч. 58 м.
Вид битрейта: Постоянный
Битрейт: 384 Кбит/сек
Каналы: 6 каналов
Расположение каналов: Front: L C R, Side: L R, LFE
Частота: 48,0 КГц
Частота кадров: 31,250 кадров/сек (1536 spf)
Метод сжатия: С потерями
Размер потока: 326 Мбайт (4%)
Язык: Russian
Default: Да
Forced: Нет

Текст
Идентификатор: 3
Формат: UTF-8
Идентификатор кодека: S_TEXT/UTF8
Идентификатор кодека/Информация: UTF-8 Plain Text
Язык: Russian
Default: Нет
Forced: Нет

Меню
00:00:00.000: en:Chapter 01
00:06:47.907: en:Chapter 02
00:09:11.676: en:Chapter 03
00:14:45.551: en:Chapter 04
00:19:27.833: en:Chapter 05
00:23:10.556: en:Chapter 06
00:33:51.905: en:Chapter 07
00:39:10.265: en:Chapter 08
00:42:19.579: en:Chapter 09
00:48:31.992: en:Chapter 10
00:52:44.745: en:Chapter 11
00:57:15.140: en:Chapter 12
00:59:26.146: en:Chapter 13
01:05:47.569: en:Chapter 14
01:09:31.751: en:Chapter 15
01:19:07.242: en:Chapter 16
01:22:48.547: en:Chapter 17
01:29:09.219: en:Chapter 18
01:35:00.653: en:Chapter 19
01:44:26.510: en:Chapter 20
01:51:06.994: en:Chapter 21
 

Вложения

  • 38,6 KB Просмотры: 0
    Личеров 0
    Сидеров 0
    Файлов 1
    Объем 7,5 GB
Ваш e-mail не будет опубликован. Он потребуется для подтверждения Вашего поста.
Оформление текста Нажмите «Ввод», чтобы отправить ответ.

Привет!

Мы группа людей которые решили помочь другим в решении их проблем, а так же пользователям с поиском самых свежих и качественных инфопродуктов. За 4 с небольшим месяца мы создали этот форум на который заходят ежедневно тысячи человек и посещаемость постоянно растёт. Мы создали панель лицензирования для защиты PHP скриптов от воровства и SEO панель для мониторинга наших сайтов и выбора верной стратегии их развития. Мы надеемся что то что мы создали пригодится Вам и возможно Вы поможете нам развиваться и совершенствоваться вместе с Вами.

Статистика форума

Темы
378.761
Сообщения
418.122
Пользователи
49.811
Новый пользователь
alz

Приложения форума для iOS и Android


У ркн там нет власти ;)
Приватные разговоры
Помощь Пользователи
    Вы не присоединились ни к одной комнате.