За последнюю неделю опубликовано 168 новых материалов.
Инструкция новичку Путеводитель по форуму Прокси для Telegram Показать подсказки , это бомба!

Скачать Малефисента: Владычица тьмы / Maleficent: Mistress of Evil (2019) BDRemux 1080p от селезень | iTunes бесплатно через торрент

  • Поучаствуй (в качестве покупателя) в любых пяти совместных покупках (кроме завершённых и "Моментальных") и получи группу "Новичок" навсегда -> ссылка на раздел
  • Получай до 480 рублей за каждого приглашенного пользователя!
    представляем Вам очередное расширение партнерской программы, подробности описаны тут -> ссылка
  • 90% материалов доступно к скачиванию после простой регистрации!
    Если же ты хочешь скачивать материалы без требования оставлять отзывы то получи группу "Новичок", 10 способов повышения описаны тут -> ссылка
  • К сожалению количество битых ссылок растет и мы уже не можем их оперативно восстанавливать поэтому просим помощи у каждого нашего пользователя.
    С сегодняшнего дня, за каждую восстановленную ссылку мы заплатим Вам.
    Подробнее тут -> ссылка
  • Перенесем твои заслуги с другого ресурса!
    Мы понимаем как сложно прокачивать аккаунты на форумах, вроде раскачал аккаунт, а тут появляется ресурс в 100 раз круче но тоже с системой прокачки и снова качать аккаунт...
    Предлагаем вам перенести Ваши заслуги на другом подобном ресурсе к нам.
    Подробности описаны тут -> ссылка
  • Вы можете получать по 2.5% с каждой покупки и продажи на маркете! Подробности в теме Партнёрская программа
Если Вы не хотите скачивать, Вы всегда можетепосмотретьонлайн, просто нажмите кнопку ниже :

Открыть плеер

Torrent_Bot

Торрент-Бот
Бот форума
4 Окт 2016
124
98
20


Информация о фильме
Название: Малефисента: Владычица тьмы
Оригинальное название: Maleficent: Mistress of Evil
Год выхода: 2019
Жанр: Фэнтези, приключения, семейный
Режиссер: Хоаким Роннинг
В ролях: Анджелина Джоли, Элль Фэннинг, Харрис Дикинсон, Мишель Пфайффер, Сэм Райли, Чиветел Эджиофор, Эд Скрейн, Роберт Линдсей, Дэвид Гяси, Дженн Мюррэй



О фильме: Действие происходит через несколько лет после того, как Малефисента наложила злые чары на принцессу Аврору. Фильм рассказывает про сложную взаимосвязь между тёмной феей и будущей королевой, о новых союзниках и противниках в деле защиты волшебного леса и магических существах, которые в нем обитают.

Страна: США, Великобритания
Студия: Roth Films, Walt Disney Pictures
Продолжительность: 01:58:50
Перевод: Дублированный | iTunes

Качество: BDRemux 1080p
Видео: MPEG-4 AVC, 1920x1080, 32.6 Mbit/s, 23.976 fps
Аудио #01: 48 kHz, AC3, 5.1, 384 Kbps | iTunes | RUS |
Аудио #02: 48 kHz, DTS-HD MA, 7.1, 5249 Kbps | Оригинал | ENG |
Субтитры: Русские (Full, SDH), английские



MI
General
Unique ID : 24255155726596934503950192563451935566 (0x123F5F81A4E7878286C42941CA013B4E)
Complete name : E:Video111Maleficent.Mistress.of.Evil.2019.BDREMUX.1080p.seleZen.mkv
Format : Matroska
Format version : Version 4
File size : 31.8 GiB
Duration : 1 h 58 min
Overall bit rate mode : Variable
Overall bit rate : 38.3 Mb/s
Movie name : Maleficent Mistress of Evil 2019 from селезень
Encoded date : UTC 2020-01-03 02:41:42
Writing application : mkvmerge v41.0.0 ('Smarra') 64-bit
Writing library : libebml v1.3.9 + libmatroska v1.5.2

Video
ID : 1
Format : AVC
Format/Info : Advanced Video Codec
Format profile : High@L4.1
Format settings : CABAC / 4 Ref Frames
Format settings, CABAC : Yes
Format settings, Reference : 4 frames
Codec ID : V_MPEG4/ISO/AVC
Duration : 1 h 58 min
Bit rate mode : Variable
Bit rate : 32.6 Mb/s
Maximum bit rate : 35.0 Mb/s
Width : 1 920 pixels
Height : 1 080 pixels
Display aspect ratio : 16:9
Frame rate mode : Constant
Frame rate : 23.976 (24000/1001) FPS
Color space : YUV
Chroma subsampling : 4:2:0
Bit depth : 8 bits
Scan type : Progressive
Bits/(Pixel*Frame) : 0.657
Stream size : 27.1 GiB (85%)
Language : English
Default : Yes
Forced : No

Audio #1
ID : 2
Format : AC-3
Format/Info : Audio Coding 3
Commercial name : Dolby Digital
Codec ID : A_AC3
Duration : 1 h 58 min
Bit rate mode : Constant
Bit rate : 384 kb/s
Channel(s) : 6 channels
Channel layout : L R C LFE Ls Rs
Sampling rate : 48.0 kHz
Frame rate : 31.250 FPS (1536 SPF)
Compression mode : Lossy
Stream size : 326 MiB (1%)
Title : iTunes
Language : Russian
Service kind : Complete Main
Default : Yes
Forced : Yes

Audio #2
ID : 3
Format : DTS XLL
Format/Info : Digital Theater Systems
Commercial name : DTS-HD Master Audio
Codec ID : A_DTS
Duration : 1 h 58 min
Bit rate mode : Variable
Bit rate : 5 249 kb/s
Channel(s) : 8 channels
Channel layout : C L R LFE Lb Rb Lss Rss
Sampling rate : 48.0 kHz
Frame rate : 93.750 FPS (512 SPF)
Bit depth : 24 bits
Compression mode : Lossless
Stream size : 4.36 GiB (14%)
Title : Original
Language : English
Default : No
Forced : No

Text #1
ID : 4
Format : UTF-8
Codec ID : S_TEXT/UTF8
Codec ID/Info : UTF-8 Plain Text
Duration : 1 h 57 min
Bit rate : 47 b/s
Count of elements : 1011
Stream size : 40.5 KiB (0%)
Title : Full
Language : Russian
Default : No
Forced : No

Text #2
ID : 5
Format : UTF-8
Codec ID : S_TEXT/UTF8
Codec ID/Info : UTF-8 Plain Text
Duration : 1 h 50 min
Bit rate : 69 b/s
Count of elements : 1560
Stream size : 56.3 KiB (0%)
Title : SDH
Language : Russian
Default : No
Forced : No

Text #3
ID : 6
Format : UTF-8
Codec ID : S_TEXT/UTF8
Codec ID/Info : UTF-8 Plain Text
Duration : 1 h 49 min
Bit rate : 31 b/s
Count of elements : 1021
Stream size : 25.5 KiB (0%)
Title : Full
Language : English
Default : No
Forced : No

Menu
00:00:00.000 : en:Chapter 01
00:06:47.907 : en:Chapter 02
00:09:11.676 : en:Chapter 03
00:14:45.551 : en:Chapter 04
00:19:27.833 : en:Chapter 05
00:23:10.556 : en:Chapter 06
00:33:51.905 : en:Chapter 07
00:39:10.265 : en:Chapter 08
00:42:19.579 : en:Chapter 09
00:48:31.992 : en:Chapter 10
00:52:44.745 : en:Chapter 11
00:57:15.140 : en:Chapter 12
00:59:26.146 : en:Chapter 13
01:05:47.569 : en:Chapter 14
01:09:31.751 : en:Chapter 15
01:19:07.242 : en:Chapter 16
01:22:48.547 : en:Chapter 17
01:29:09.219 : en:Chapter 18
01:35:00.653 : en:Chapter 19
01:44:26.510 : en:Chapter 20
01:51:06.994 : en:Chapter 21

Релиз от:

 

Вложения

  • 159,9 KB Просмотры: 0
    Личеров 0
    Сидеров 0
    Файлов 1
    Объем 31,8 GB
Ваш e-mail не будет опубликован. Он потребуется для подтверждения Вашего поста.
Оформление текста Нажмите «Ввод», чтобы отправить ответ.

Привет!

Мы группа людей которые решили помочь другим в решении их проблем, а так же пользователям с поиском самых свежих и качественных инфопродуктов. За 4 с небольшим месяца мы создали этот форум на который заходят ежедневно тысячи человек и посещаемость постоянно растёт. Мы создали панель лицензирования для защиты PHP скриптов от воровства и SEO панель для мониторинга наших сайтов и выбора верной стратегии их развития. Мы надеемся что то что мы создали пригодится Вам и возможно Вы поможете нам развиваться и совершенствоваться вместе с Вами.

Статистика форума

Темы
380.771
Сообщения
420.541
Пользователи
51.210
Новый пользователь
ganssales

Приложения форума для iOS и Android


У ркн там нет власти ;)
Приватные разговоры
Помощь Пользователи
    Вы не присоединились ни к одной комнате.