За последнюю неделю опубликовано 40 новых материалов.
Инструкция новичку Путеводитель по форуму Прокси для Telegram Показать подсказки , это бомба!

Скачать Мальчик и голубь (1961) TVRip бесплатно через торрент

  • Поучаствуй (в качестве покупателя) в любых пяти совместных покупках (кроме завершённых и "Моментальных") и получи группу "Новичок" навсегда -> ссылка на раздел
  • Получай до 480 рублей за каждого приглашенного пользователя!
    представляем Вам очередное расширение партнерской программы, подробности описаны тут -> ссылка
  • 90% материалов доступно к скачиванию после простой регистрации!
    Если же ты хочешь скачивать материалы без требования оставлять отзывы то получи группу "Новичок", 10 способов повышения описаны тут -> ссылка
  • К сожалению количество битых ссылок растет и мы уже не можем их оперативно восстанавливать поэтому просим помощи у каждого нашего пользователя.
    С сегодняшнего дня, за каждую восстановленную ссылку мы заплатим Вам.
    Подробнее тут -> ссылка
  • Перенесем твои заслуги с другого ресурса!
    Мы понимаем как сложно прокачивать аккаунты на форумах, вроде раскачал аккаунт, а тут появляется ресурс в 100 раз круче но тоже с системой прокачки и снова качать аккаунт...
    Предлагаем вам перенести Ваши заслуги на другом подобном ресурсе к нам.
    Подробности описаны тут -> ссылка
  • Вы можете получать по 2.5% с каждой покупки и продажи на маркете! Подробности в теме Партнёрская программа
Если Вы не хотите скачивать, Вы всегда можетепосмотретьонлайн, просто нажмите кнопку ниже :

Открыть плеер

Torrent_Bot

Торрент-Бот
Бот форума
4 Окт 2016
90
168
20
Информация о фильме
Название: Мальчик и голубь
Год выхода: 1961
Жанр: новелла, драма, короткометражка
Режиссер: Андрей Михалков-Кончаловский, Евгений Осташенко
В ролях: Николай Бурляев, Евгений Урбанский, Владимир Шурупов

О фильме:
Мальчик мечтает о голубе — рисует его на стене, часами наблюдает птиц в небе. Но на рынке за голубя просят 100 рублей! Мальчик выменивает птицу мечты на альбом с отцовскими марками и наступает миг счастья — со своей крыши мальчик выпускает в облака своего голубя! Но голубь не знал, что у него новый хозяин и вернулся в родную голубятню к барыге. Мальчик бежал за своим голубем через весь город, но дворовый закон суров: «Выкуп!»…

ВГИК, курсовая работа А. Кончаловского. Именно из этого поэтического и грустного фильма шестиклассник Коля Бурляев спустя время "перекочевал" в первый полнометражный фильм Андрея Тарковского "Иваново детство".



Страна: СССР
Продолжительность: 00:19:12
Перевод: оригинал

Файл
Качество: TVRip
Формат: AVI
Видео: XviD, 720x544 (4:3), 25.000 fps, 2420 kbps, 0.247 bit/pixel
Аудио: русский, AC3 2.0, 48 kHz, 192 kbps

MediaInfo
Формат : AVI
Формат/Информация : Audio Video Interleave
Размер файла : 360 Мбайт
Продолжительность : 19 м.
Общий поток : 2622 Кбит/сек
Программа кодирования : VirtualDubMod 1.5.10.3 | www.virtualdub-fr.org || (build 2550/release)
Библиотека кодирования : VirtualDubMod build 2550/release

Видео
Идентификатор : 0
Формат : MPEG-4 Visual
Профиль формата : Advanced [email protected]
Параметр BVOP формата : 2
Параметр QPel формата : Нет
Параметр GMC формата : Без точки перехода
Параметр матрицы формата : Default (H.263)
Идентификатор кодека : XVID
Идентификатор кодека/Подсказка : XviD
Продолжительность : 19 м.
Битрейт : 2420 Кбит/сек
Ширина : 720 пикселей
Высота : 544 пикселя
Соотношение сторон : 4:3
Частота кадров : 25,000 кадров/сек
Цветовое пространство : YUV
Субдискретизация насыщенности : 4:2:0
Битовая глубина : 8 бит
Тип развёртки : Прогрессивная
Метод сжатия : С потерями
Бит/(Пиксели*Кадры) : 0.247
Размер потока : 333 Мбайт (92%)
Библиотека кодирования : XviD 1.2.1 (UTC 2008-12-04)

Аудио
Идентификатор : 1
Формат : AC-3
Формат/Информация : Audio Coding 3
Расширение режима : CM (complete main)
Параметр Endianness формата : Big
Идентификатор кодека : 2000
Продолжительность : 19 м.
Вид битрейта : Постоянный
Битрейт : 192 Кбит/сек
Каналы : 2 канала
Расположение каналов : Front: L R
Частота : 48,0 КГц
Метод сжатия : С потерями
Размер потока : 26,4 Мбайт (7%)
Выравнивание : Разделение по промежуткам
Продолжительность промежутка : 40 мс. (1,00 видеокадр)
Время предзагрузки промежутка : 500 мс.
Скриншоты
 

Вложения

  • 15,1 KB Просмотры: 0
    Личеров 0
    Сидеров 0
    Файлов 1
    Объем 360,3 MB

Привет!

Мы группа людей которые решили помочь другим в решении их проблем, а так же пользователям с поиском самых свежих и качественных инфопродуктов. За 4 с небольшим месяца мы создали этот форум на который заходят ежедневно тысячи человек и посещаемость постоянно растёт. Мы создали панель лицензирования для защиты PHP скриптов от воровства и SEO панель для мониторинга наших сайтов и выбора верной стратегии их развития. Мы надеемся что то что мы создали пригодится Вам и возможно Вы поможете нам развиваться и совершенствоваться вместе с Вами.

Статистика форума

Темы
410.966
Сообщения
469.423
Пользователи
88.504
Новый пользователь
Foxiro

Приложения форума для iOS и Android


У ркн там нет власти ;)
Приватные разговоры
Помощь Пользователи
    Вы не присоединились ни к одной комнате.