За последнюю неделю опубликовано 47 новых материалов.
Инструкция новичку Путеводитель по форуму Прокси для Telegram Показать подсказки , это бомба!

Скачать Madonna - Madame X [24bit Hi-Res, Deluxe] (2019) FLAC бесплатно через торрент

  • Поучаствуй (в качестве покупателя) в любых пяти совместных покупках (кроме завершённых и "Моментальных") и получи группу "Новичок" навсегда -> ссылка на раздел
  • Получай до 480 рублей за каждого приглашенного пользователя!
    представляем Вам очередное расширение партнерской программы, подробности описаны тут -> ссылка
  • 90% материалов доступно к скачиванию после простой регистрации!
    Если же ты хочешь скачивать материалы без требования оставлять отзывы то получи группу "Новичок", 10 способов повышения описаны тут -> ссылка
  • К сожалению количество битых ссылок растет и мы уже не можем их оперативно восстанавливать поэтому просим помощи у каждого нашего пользователя.
    С сегодняшнего дня, за каждую восстановленную ссылку мы заплатим Вам.
    Подробнее тут -> ссылка
  • Перенесем твои заслуги с другого ресурса!
    Мы понимаем как сложно прокачивать аккаунты на форумах, вроде раскачал аккаунт, а тут появляется ресурс в 100 раз круче но тоже с системой прокачки и снова качать аккаунт...
    Предлагаем вам перенести Ваши заслуги на другом подобном ресурсе к нам.
    Подробности описаны тут -> ссылка
  • Вы можете получать по 2.5% с каждой покупки и продажи на маркете! Подробности в теме Партнёрская программа

Torrent_Bot

Торрент-Бот
Бот форума
4 Окт 2016
90
166
20



Исполнитель: Madonna
Название: Madame X
Страна: USA
Жанр: Pop
Год: 2019
Продолжительность: 01:04:32
Битрейт аудио: Lossless
Формат/Кодек: FLAC
Тип рипа: tracks
Разрядность: 24/88,2
Количество каналов: 2.0


01. Medellin (feat. Maluma) (4:59)
02. Dark Ballet (4:15)
03. God Control (6:20)
04. Future (feat. Quavo) (3:54)
05. Batuka (4:58)
06. Killers Who Are Partyng ( Partying ) (5:29)
07. Crave (feat. Swae Lee) (3:22)
08. Crazy (4:02)
09. Come Alive (4:02)
10. Extreme Occident (3:42)
11. Faz Gostoso (feat. Anitta) (4:06)
12. Bitch I'm Loca (feat. Maluma) (2:51)
13. I Dont Search I Find (4:08)
14. Looking For Mercy (4:51)
15. I Rise (3:45)

DR
foobar2000 1.4.4 / Замер динамического диапазона (DR) 1.1.1
Дата отчёта: 2019-06-15 07:02:15

--------------------------------------------------------------------------------
Анализ: Madonna / Madame X
--------------------------------------------------------------------------------

DR Пики RMS Продолжительность трека
--------------------------------------------------------------------------------
DR5 -0.37 дБ -8.47 дБ 4:58 01-Medellín
DR7 -0.37 дБ -10.31 дБ 4:15 02-Dark Ballet
DR6 -0.37 дБ -8.70 дБ 6:19 03-God Control
DR5 -0.37 дБ -7.13 дБ 3:54 04-Future
DR6 -0.37 дБ -10.14 дБ 4:57 05-Batuka
DR6 -0.37 дБ -10.68 дБ 5:29 06-Killers Who Are Partying
DR4 -0.37 дБ -7.20 дБ 3:22 07-Crave
DR4 -0.37 дБ -6.44 дБ 4:02 08-Crazy
DR5 -0.37 дБ -8.08 дБ 4:02 09-Come Alive
DR5 -0.37 дБ -9.70 дБ 3:42 10-Extreme Occident
DR6 -0.37 дБ -9.34 дБ 4:06 11-Faz Gostoso
DR5 -0.37 дБ -6.58 дБ 2:51 12-Bitch I’m Loca
DR4 -0.37 дБ -6.37 дБ 4:08 13-I Don’t Search I Find
DR5 -0.37 дБ -7.42 дБ 4:50 14-Looking For Mercy
DR5 -0.37 дБ -8.86 дБ 3:44 15-I Rise
--------------------------------------------------------------------------------

Количество треков: 15
Реальные значения DR: DR5

Частота: 88200 Гц
Каналов: 2
Разрядность: 24
Битрейт: 2788 кбит/с
Кодек: FLAC
================================================================================
 

Вложения

  • 13,9 KB Просмотры: 2
    Личеров 0
    Сидеров 0
    Файлов 17
    Объем 1,2 GB

Привет!

Мы группа людей которые решили помочь другим в решении их проблем, а так же пользователям с поиском самых свежих и качественных инфопродуктов. За 4 с небольшим месяца мы создали этот форум на который заходят ежедневно тысячи человек и посещаемость постоянно растёт. Мы создали панель лицензирования для защиты PHP скриптов от воровства и SEO панель для мониторинга наших сайтов и выбора верной стратегии их развития. Мы надеемся что то что мы создали пригодится Вам и возможно Вы поможете нам развиваться и совершенствоваться вместе с Вами.

Статистика форума

Темы
410.885
Сообщения
469.444
Пользователи
87.883
Новый пользователь
denylav

Приложения форума для iOS и Android


У ркн там нет власти ;)
Приватные разговоры
Помощь Пользователи
    Вы не присоединились ни к одной комнате.