За последнюю неделю опубликовано 194 новых материалов.
Инструкция новичку Путеводитель по форуму Прокси для Telegram Показать подсказки , это бомба!

Скачать Лжец, лжец / Liar Liar (1997) DVDRip-AVC | P, P2 | Fullscreen бесплатно через торрент

  • Поучаствуй (в качестве покупателя) в любых пяти совместных покупках (кроме завершённых и "Моментальных") и получи группу "Новичок" навсегда -> ссылка на раздел
  • Получай до 480 рублей за каждого приглашенного пользователя!
    представляем Вам очередное расширение партнерской программы, подробности описаны тут -> ссылка
  • 90% материалов доступно к скачиванию после простой регистрации!
    Если же ты хочешь скачивать материалы без требования оставлять отзывы то получи группу "Новичок", 10 способов повышения описаны тут -> ссылка
  • К сожалению количество битых ссылок растет и мы уже не можем их оперативно восстанавливать поэтому просим помощи у каждого нашего пользователя.
    С сегодняшнего дня, за каждую восстановленную ссылку мы заплатим Вам.
    Подробнее тут -> ссылка
  • Перенесем твои заслуги с другого ресурса!
    Мы понимаем как сложно прокачивать аккаунты на форумах, вроде раскачал аккаунт, а тут появляется ресурс в 100 раз круче но тоже с системой прокачки и снова качать аккаунт...
    Предлагаем вам перенести Ваши заслуги на другом подобном ресурсе к нам.
    Подробности описаны тут -> ссылка
  • Вы можете получать по 2.5% с каждой покупки и продажи на маркете! Подробности в теме Партнёрская программа
Если Вы не хотите скачивать, Вы всегда можетепосмотретьонлайн, просто нажмите кнопку ниже :

Открыть плеер

Torrent_Bot

Торрент-Бот
Бот форума
4 Окт 2016
124
94
20



Информация о фильме
Название: Лжец, лжец
Оригинальное название: Liar Liar
Год выхода: 1997
Жанр: комедия
Режиссер: Том Шедьяк / Tom Shadyac
В ролях: Джим Керри, Мора Тирни, Джастин Купер, Кэри Элвис, Энн Хейни, Дженнифер Тилли, Аманда Донохью, Джейсон Бернард, Свузи Кёрц, Митч Райан

О фильме:
Флетчер Рид — блестящий адвокат и неисправимый лжец. Он по привычке врет жене Одри, сыну Максу и учит клиентов подстраивать правду под свои нужды, перекраивать истину ради своей выгоды. Жена бросает Флетчера из-за его вредной привычки лгать, а сын Макс в свой день рождения, задувая свечи на торте, загадывает только одно желание: «Хочу, чтоб мой любимый папочка перестал постоянно врать».
Желание сбывается, и неожиданно для Флетчера Рида язык, который всегда был его рабочим инструментом, превращается в его главного врага. Флетчер начинает говорить обидную правду своему начальнику и клиентам. Эта правдивость может стоить адвокату работы! Но самое страшное ждет правдивого поневоле Флетчера в зале суда, когда будет слушаться дело о разводе его клиента. Без вранья он не сможет выиграть! Да, этот день своей жизни Флетчер Рид не забудет никогда…



Страна: США
Продолжительность: 01:26:23
Перевод: Профессиональный (многоголосый закадровый), Профессиональный (двухголосый закадровый)

Файл
Качество: DVDRip-AVC
Формат: MKV
Видео: 718x480@718x540, 23.976 fps, MPEG-4 AVC, 2574 kbps avg
Аудио 1: Russian: 48 kHz, AC3, 2 ch, ~192 kbps avg - MVO СТС
Аудио 2: Russian: 48 kHz, AC3, 2 ch, ~192 kbps avg - DVO НТВ+
Аудио 3: English: 48 kHz, AC3, 6 ch, ~448 kbps avg
Субтитры: Русские (Full), Английские (Full)

MediaInfo
General
Unique ID : 171989051134322291281803006135480679500 (0x8163E2E90E06B6501C1A2AB4E06CFC4C)
Complete name : D:Liar.Liar.1997.DVDRip.x264.Fullscreen.mkv
Format : Matroska
Format version : Version 4
File size : 2.06 GiB
Duration : 1 h 26 min
Overall bit rate : 3 408 kb/s
Encoded date : UTC 2019-12-10 13:04:10
Writing application : mkvmerge v37.0.0 ('Leave It') 64-bit
Writing library : libebml v1.3.9 + libmatroska v1.5.2

Video
ID : 1
Format : AVC
Format/Info : Advanced Video Codec
Format profile : High@L4.1
Format settings : CABAC / 10 Ref Frames
Format settings, CABAC : Yes
Format settings, Reference frames : 10 frames
Codec ID : V_MPEG4/ISO/AVC
Duration : 1 h 26 min
Bit rate : 2 574 kb/s
Width : 718 pixels
Height : 480 pixels
Display aspect ratio : 4:3
Frame rate mode : Constant
Frame rate : 23.976 (24000/1001) FPS
Color space : YUV
Chroma subsampling : 4:2:0
Bit depth : 8 bits
Scan type : Progressive
Bits/(Pixel*Frame) : 0.311
Stream size : 1.55 GiB (76%)
Writing library : x264 core 158 r2988 7817004
Encoding settings : cabac=1 / ref=10 / deblock=1:-3:-3 / analyse=0x3:0x113 / me=umh / subme=11 / psy=1 / psy_rd=1.00:0.00 / mixed_ref=1 / me_range=32 / chroma_me=1 / trellis=2 / 8x8dct=1 / cqm=0 / deadzone=21,11 / fast_pskip=0 / chroma_qp_offset=-2 / threads=3 / lookahead_threads=1 / sliced_threads=0 / nr=0 / decimate=1 / interlaced=0 / bluray_compat=0 / constrained_intra=0 / bframes=10 / b_pyramid=2 / b_adapt=2 / b_bias=0 / direct=1 / weightb=1 / open_gop=0 / weightp=2 / keyint=240 / keyint_min=23 / scenecut=40 / intra_refresh=0 / rc_lookahead=60 / rc=crf / mbtree=0 / crf=16.6 / qcomp=0.60 / qpmin=0 / qpmax=69 / qpstep=4 / vbv_maxrate=50000 / vbv_bufsize=62500 / crf_max=0.0 / nal_hrd=none / filler=0 / ip_ratio=1.40 / pb_ratio=1.30 / aq=2:0.90
Language : English
Default : Yes
Forced : No
Color range : Limited
Color primaries : BT.601 NTSC
Transfer characteristics : BT.601
Matrix coefficients : BT.601

Audio #1
ID : 2
Format : AC-3
Format/Info : Audio Coding 3
Commercial name : Dolby Digital
Codec ID : A_AC3
Duration : 1 h 26 min
Bit rate mode : Constant
Bit rate : 192 kb/s
Channel(s) : 2 channels
Channel layout : L R
Sampling rate : 48.0 kHz
Frame rate : 31.250 FPS (1536 SPF)
Bit depth : 16 bits
Compression mode : Lossy
Stream size : 119 MiB (6%)
Title : MVO СТС
Language : Russian
Service kind : Complete Main
Default : Yes
Forced : No

Audio #2
ID : 3
Format : AC-3
Format/Info : Audio Coding 3
Commercial name : Dolby Digital
Codec ID : A_AC3
Duration : 1 h 26 min
Bit rate mode : Constant
Bit rate : 192 kb/s
Channel(s) : 2 channels
Channel layout : L R
Sampling rate : 48.0 kHz
Frame rate : 31.250 FPS (1536 SPF)
Bit depth : 16 bits
Compression mode : Lossy
Stream size : 119 MiB (6%)
Title : DVO НТВ+
Language : Russian
Service kind : Complete Main
Default : No
Forced : No

Audio #3
ID : 4
Format : AC-3
Format/Info : Audio Coding 3
Commercial name : Dolby Digital
Codec ID : A_AC3
Duration : 1 h 26 min
Bit rate mode : Constant
Bit rate : 448 kb/s
Channel(s) : 6 channels
Channel layout : L R C LFE Ls Rs
Sampling rate : 48.0 kHz
Frame rate : 31.250 FPS (1536 SPF)
Bit depth : 16 bits
Compression mode : Lossy
Stream size : 277 MiB (13%)
Language : English
Service kind : Complete Main
Default : No
Forced : No

Text #1
ID : 5
Format : UTF-8
Codec ID : S_TEXT/UTF8
Codec ID/Info : UTF-8 Plain Text
Duration : 1 h 22 min
Bit rate : 112 b/s
Count of elements : 1096
Stream size : 68.0 KiB (0%)
Language : Russian
Default : No
Forced : No

Text #2
ID : 6
Format : UTF-8
Codec ID : S_TEXT/UTF8
Codec ID/Info : UTF-8 Plain Text
Duration : 1 h 22 min
Bit rate : 69 b/s
Count of elements : 1123
Stream size : 42.0 KiB (0%)
Language : English
Default : No
Forced : No

Menu
00:00:00.000 : en:Chapter 01
00:13:40.986 : en:Chapter 02
00:18:45.757 : en:Chapter 03
00:20:10.342 : en:Chapter 04
00:22:29.681 : en:Chapter 05
00:26:33.558 : en:Chapter 06
00:32:59.811 : en:Chapter 07
00:38:15.593 : en:Chapter 08
00:41:58.482 : en:Chapter 09
00:45:52.382 : en:Chapter 10
00:49:24.594 : en:Chapter 11
00:53:10.287 : en:Chapter 12
00:57:07.223 : en:Chapter 13
01:11:07.229 : en:Chapter 14
01:18:52.527 : en:Chapter 15
01:20:39.634 : en:Chapter 16
Сравнения

Скриншоты

 

Вложения

  • 11,2 KB Просмотры: 0
    Личеров 0
    Сидеров 0
    Файлов 1
    Объем 2,1 GB
Ваш e-mail не будет опубликован. Он потребуется для подтверждения Вашего поста.
Оформление текста Нажмите «Ввод», чтобы отправить ответ.

Привет!

Мы группа людей которые решили помочь другим в решении их проблем, а так же пользователям с поиском самых свежих и качественных инфопродуктов. За 4 с небольшим месяца мы создали этот форум на который заходят ежедневно тысячи человек и посещаемость постоянно растёт. Мы создали панель лицензирования для защиты PHP скриптов от воровства и SEO панель для мониторинга наших сайтов и выбора верной стратегии их развития. Мы надеемся что то что мы создали пригодится Вам и возможно Вы поможете нам развиваться и совершенствоваться вместе с Вами.

Статистика форума

Темы
378.716
Сообщения
417.914
Пользователи
49.434
Новый пользователь
Lady air

Приложения форума для iOS и Android


У ркн там нет власти ;)
Приватные разговоры
Помощь Пользователи
    Вы не присоединились ни к одной комнате.