За последнюю неделю опубликовано 62 новых материалов.
Инструкция новичку Путеводитель по форуму Прокси для Telegram Показать подсказки , это бомба!

Скачать Львица / Rogue (2020) HDRip | КПК | P бесплатно через торрент

  • Поучаствуй (в качестве покупателя) в любых пяти совместных покупках (кроме завершённых и "Моментальных") и получи группу "Новичок" навсегда -> ссылка на раздел
  • Получай до 480 рублей за каждого приглашенного пользователя!
    представляем Вам очередное расширение партнерской программы, подробности описаны тут -> ссылка
  • 90% материалов доступно к скачиванию после простой регистрации!
    Если же ты хочешь скачивать материалы без требования оставлять отзывы то получи группу "Новичок", 10 способов повышения описаны тут -> ссылка
  • К сожалению количество битых ссылок растет и мы уже не можем их оперативно восстанавливать поэтому просим помощи у каждого нашего пользователя.
    С сегодняшнего дня, за каждую восстановленную ссылку мы заплатим Вам.
    Подробнее тут -> ссылка
  • Перенесем твои заслуги с другого ресурса!
    Мы понимаем как сложно прокачивать аккаунты на форумах, вроде раскачал аккаунт, а тут появляется ресурс в 100 раз круче но тоже с системой прокачки и снова качать аккаунт...
    Предлагаем вам перенести Ваши заслуги на другом подобном ресурсе к нам.
    Подробности описаны тут -> ссылка
  • Вы можете получать по 2.5% с каждой покупки и продажи на маркете! Подробности в теме Партнёрская программа
Если Вы не хотите скачивать, Вы всегда можетепосмотретьонлайн, просто нажмите кнопку ниже :

Открыть плеер

Torrent_Bot

Торрент-Бот
Бот форума
4 Окт 2016
92
160
20



Информация о фильме
Название: Львица
Оригинальное название: Rogue
Год выхода: 2020
Жанр: Боевик
Режиссер: М. Дж. Бассетт
В ролях: Меган Фокс, Джессика Саттон, Филип Уинчестер, Каллиопе Джейн Тейлор, Ли-Энн Либенберг, Брэндон Оре, Грег Крик, Адам Дикон, Тамер Барджаг, Сисанда Хэнна

О фильме:
Саманта возглавляет команду наемников, которая отправляется в Африку, чтобы спасти похищенную дочь местного губернатора. Но когда операция срывается, команда оказывается в самом сердце африканской пустыни, а по следам за ними идут не только похитители, но и разъяренные львы.



Рейтинг MPAA: R - лицам до 17 лет обязательно присутствие взрослого

Страна: Великобритания, ЮАР
Студия: Grindstone Entertainment Group, Hassell Free Production, Mannequin Pictures
Продолжительность: 01:45:59
Перевод: Профессиональный (многоголосый, закадровый) | HDrezka Studio

Примечание :в переводе присутствует ненормативная лексика!

Файл
Формат: MP4
Качество: HDRip (исх. BDRip 1080p от HDReactor)
Видео: AVC, 640x268 (2.39:1) at 23.976 fps, 600 kb/s
Аудио: AAC LC SBR (HE-AAC), 48.0 KHz, 2 ch, 64 kb/s
Субтитры: Русские (forced)

MediaInfo
General
Complete name : Rogue.2020.MVO.HDRip.mp4
Format : MPEG-4
Format profile : Base Media
Codec ID : isom (isom)
File size : 506 MiB
Duration : 1 h 45 min
Overall bit rate mode : Variable
Overall bit rate : 667 kb/s
Encoded date : UTC 2020-08-25 06:02:50
Tagged date : UTC 2020-08-25 06:02:50
Writing application : Yamb 2.1.0.0 [http://yamb.unite-video.com]

Video
ID : 1
Format : AVC
Format/Info : Advanced Video Codec
Format profile : [email protected]
Format settings : CABAC / 14 Ref Frames
Format settings, CABAC : Yes
Format settings, RefFrames : 14 frames
Codec ID : avc1
Codec ID/Info : Advanced Video Coding
Duration : 1 h 45 min
Bit rate : 600 kb/s
Maximum bit rate : 5 414 kb/s
Width : 640 pixels
Height : 268 pixels
Display aspect ratio : 2.40:1
Original display aspect ratio : 2.40:1
Frame rate mode : Constant
Frame rate : 23.976 (24000/1001) FPS
Color space : YUV
Chroma subsampling : 4:2:0
Bit depth : 8 bits
Scan type : Progressive
Bits/(Pixel*Frame) : 0.146
Stream size : 455 MiB (90%)
Title : Rogue
Writing library : x264 core 152 r2851 ba24899
Encoding settings : cabac=1 / ref=14 / deblock=1:-2:-2 / analyse=0x3:0x113 / me=umh / subme=10 / psy=1 / psy_rd=1.00:0.00 / mixed_ref=1 / me_range=32 / chroma_me=1 / trellis=2 / 8x8dct=1 / cqm=0 / deadzone=21,11 / fast_pskip=0 / chroma_qp_offset=-2 / threads=6 / lookahead_threads=1 / sliced_threads=0 / nr=0 / decimate=0 / interlaced=0 / bluray_compat=0 / constrained_intra=0 / bframes=13 / b_pyramid=2 / b_adapt=2 / b_bias=0 / direct=3 / weightb=1 / open_gop=0 / weightp=2 / keyint=250 / keyint_min=23 / scenecut=40 / intra_refresh=0 / rc=2pass / mbtree=0 / bitrate=600 / ratetol=1.0 / qcomp=0.65 / qpmin=0 / qpmax=69 / qpstep=4 / cplxblur=20.0 / qblur=0.5 / ip_ratio=1.20 / pb_ratio=1.30 / aq=2:0.90
Language : English
Encoded date : UTC 2020-08-26 02:53:10
Tagged date : UTC 2020-08-25 06:04:04
Codec configuration box : avcC

Audio
ID : 2
Format : AAC LC SBR
Format/Info : Advanced Audio Codec Low Complexity with Spectral Band Replication
Commercial name : HE-AAC
Format settings : Explicit
Codec ID : mp4a-40-2
Duration : 1 h 45 min
Bit rate mode : Variable
Bit rate : 64.0 kb/s
Maximum bit rate : 175 kb/s
Channel(s) : 2 channels
Channel layout : L R
Sampling rate : 48.0 kHz
Frame rate : 23.438 FPS (2048 SPF)
Compression mode : Lossy
Stream size : 48.5 MiB (10%)
Title : MVO - HDrezka Studio
Language : Russian
Encoded date : UTC 2020-08-25 06:04:00
Tagged date : UTC 2020-08-25 06:04:04

Text
ID : 3
Format : Timed Text
Codec ID : tx3g
Duration : 1 h 28 min
Bit rate mode : Variable
Bit rate : 1 b/s
Stream size : 863 Bytes (0%)
Title : forced
Language : Russian
Forced : No
Encoded date : UTC 2020-08-25 06:04:04
Tagged date : UTC 2020-08-25 06:04:04
Скриншоты
 

Вложения

  • 20,7 KB Просмотры: 0
    Личеров 0
    Сидеров 0
    Файлов 1
    Объем 505,5 MB

Привет!

Мы группа людей которые решили помочь другим в решении их проблем, а так же пользователям с поиском самых свежих и качественных инфопродуктов. За 4 с небольшим месяца мы создали этот форум на который заходят ежедневно тысячи человек и посещаемость постоянно растёт. Мы создали панель лицензирования для защиты PHP скриптов от воровства и SEO панель для мониторинга наших сайтов и выбора верной стратегии их развития. Мы надеемся что то что мы создали пригодится Вам и возможно Вы поможете нам развиваться и совершенствоваться вместе с Вами.

Статистика форума

Темы
406.657
Сообщения
465.112
Пользователи
84.665
Новый пользователь
koleg

Приложения форума для iOS и Android


У ркн там нет власти ;)
Приватные разговоры
Помощь Пользователи
    Вы не присоединились ни к одной комнате.