За последнюю неделю опубликовано 57 новых материалов.
Инструкция новичку Путеводитель по форуму Прокси для Telegram Показать подсказки , это бомба!

Скачать Лунный свет / Moonlighting (1982) BDRemux 1080p | P2 бесплатно через торрент

  • Поучаствуй (в качестве покупателя) в любых пяти совместных покупках (кроме завершённых и "Моментальных") и получи группу "Новичок" навсегда -> ссылка на раздел
  • Получай до 480 рублей за каждого приглашенного пользователя!
    представляем Вам очередное расширение партнерской программы, подробности описаны тут -> ссылка
  • 90% материалов доступно к скачиванию после простой регистрации!
    Если же ты хочешь скачивать материалы без требования оставлять отзывы то получи группу "Новичок", 10 способов повышения описаны тут -> ссылка
  • К сожалению количество битых ссылок растет и мы уже не можем их оперативно восстанавливать поэтому просим помощи у каждого нашего пользователя.
    С сегодняшнего дня, за каждую восстановленную ссылку мы заплатим Вам.
    Подробнее тут -> ссылка
  • Перенесем твои заслуги с другого ресурса!
    Мы понимаем как сложно прокачивать аккаунты на форумах, вроде раскачал аккаунт, а тут появляется ресурс в 100 раз круче но тоже с системой прокачки и снова качать аккаунт...
    Предлагаем вам перенести Ваши заслуги на другом подобном ресурсе к нам.
    Подробности описаны тут -> ссылка
  • Вы можете получать по 2.5% с каждой покупки и продажи на маркете! Подробности в теме Партнёрская программа
Если Вы не хотите скачивать, Вы всегда можетепосмотретьонлайн, просто нажмите кнопку ниже :

Открыть плеер

Torrent_Bot

Торрент-Бот
Бот форума
4 Окт 2016
92
163
20


Название: Лунный свет
Оригинальное название: Moonlighting
Год выпуска: 1982
Страна: Великобритания
Жанр: драма
Продолжительность: 01:37:19
Перевод: профессиональный двухголосый
Режиссер: Ежи Сколимовский
В ролях: Джереми Айронс, Юджин Липински, Иржи Станислав, Евгениуш Хачкевич, Эдвард Артур, Дэнис Холмс, Рену Сетна, Дэвид Колдер, Джуди Гридли

О фильме: Польский подрядчик Новак везёт группу рабочих в Лондон. Так правительственные чиновники, размещающиеся там, получают дешёвую рабочую силу. Новак должен управлять проектом и контролировать работников, сталкивающихся с искушениями Запада и переживающих одиночество и оторванность от семей. Из всей группы только Новак говорит по-английски, и он использует это для управления. Когда из-за беспорядков в Польше было введено военное положение, Новак оказывается в более трудной ситуации, чем рассчитывал...



Файл
Качество: BDRemux 1080p
Формат: MKV
Видео: 1920x1080, MPEG-4 AVC Video / 23,9 Мбит/сек / 23,976 fps / 16:9 /
Аудио 1: AC3, 48 kHz, 2ch, 224.00 kbps: [DVO]
Аудио 2: FLAC, 48 kHz, 2ch, 671.00 kbps: [Original]
Аудио 3: FLAC, 48 kHz, 2ch, 672.00 kbps: [Comments From Jeremy Irons]
Аудио 4: FLAC, 48 kHz, 2ch, 619.00 kbps: [Isolated Music Score By Stanley Myers]

Субтитры: английские

Разбивка на главы: есть


MediaInfo
Общее
Уникальный идентификатор : 326739275912166029807881872360808820711 (0xF5CFB20F7A2E37821A6953EDED9AAFE7)
Полное имя : D:HD видеоMoonlighting 1982Moonlighting 1982.mkv
Формат : Matroska
Версия формата : Version 4
Размер файла : 17,7 Гбайт
Продолжительность : 1 ч. 37 м.
Режим общего битрейта : Переменный
Общий поток : 26,1 Мбит/сек
Дата кодирования : UTC 2019-08-31 08:26:29
Программа кодирования : mkvmerge v35.0.0 ('All The Love In The World') 64-bit
Библиотека кодирования : libebml v1.3.9 + libmatroska v1.5.2

Видео
Идентификатор : 1
Формат : AVC
Формат/Информация : Advanced Video Codec
Профиль формата : [email protected]
Настройки формата : CABAC / 4 Ref Frames
Параметр CABAC формата : Да
Параметр RefFrames формата : 4 кадра
Идентификатор кодека : V_MPEG4/ISO/AVC
Продолжительность : 1 ч. 37 м.
Вид битрейта : Переменный
Битрейт : 23,9 Мбит/сек
Максимальный битрейт : 38,0 Мбит/сек
Ширина : 1920 пикселей
Высота : 1080 пикселей
Соотношение сторон : 16:9
Режим частоты кадров : Постоянный
Частота кадров : 23,976 (24000/1001) кадра/сек
Цветовое пространство : YUV
Субдискретизация насыщенности : 4:2:0
Битовая глубина : 8 бит
Тип развёртки : Прогрессивная
Бит/(Пиксели*Кадры) : 0.480
Размер потока : 16,2 Гбайт (92%)
Default : Да
Forced : Нет

Аудио #1
Идентификатор : 2
Формат : AC-3
Формат/Информация : Audio Coding 3
Коммерческое название : Dolby Digital
Идентификатор кодека : A_AC3
Продолжительность : 1 ч. 37 м.
Вид битрейта : Постоянный
Битрейт : 224 Кбит/сек
Каналы : 2 канала
ChannelLayout : L R
Частота : 48,0 КГц
Частота кадров : 31,250 кадров/сек (1536 SPF)
Битовая глубина : 16 бит
Метод сжатия : С потерями
Размер потока : 156 Мбайт (1%)
Заголовок : DVO
Язык : Russian
ServiceKind/String : Complete Main
Default : Да
Forced : Нет

Аудио #2
Идентификатор : 3
Формат : FLAC
Формат/Информация : Free Lossless Audio Codec
Идентификатор кодека : A_FLAC
Продолжительность : 1 ч. 37 м.
Вид битрейта : Переменный
Битрейт : 671 Кбит/сек
Каналы : 2 канала
ChannelLayout : L R
Частота : 48,0 КГц
Частота кадров : 10,417 кадров/сек (4608 SPF)
Битовая глубина : 24 бит
Метод сжатия : Без потерь
Размер потока : 467 Мбайт (3%)
Заголовок : Original
Библиотека кодирования : Lavf58.12.100
Язык : English
Default : Нет
Forced : Нет

Аудио #3
Идентификатор : 4
Формат : FLAC
Формат/Информация : Free Lossless Audio Codec
Идентификатор кодека : A_FLAC
Продолжительность : 1 ч. 37 м.
Вид битрейта : Переменный
Битрейт : 672 Кбит/сек
Каналы : 2 канала
ChannelLayout : L R
Частота : 48,0 КГц
Частота кадров : 10,417 кадров/сек (4608 SPF)
Битовая глубина : 24 бит
Метод сжатия : Без потерь
Размер потока : 468 Мбайт (3%)
Заголовок : Comments From Jeremy Irons
Библиотека кодирования : Lavf58.12.100
Язык : English
Default : Нет
Forced : Нет

Аудио #4
Идентификатор : 5
Формат : FLAC
Формат/Информация : Free Lossless Audio Codec
Идентификатор кодека : A_FLAC
Продолжительность : 1 ч. 37 м.
Вид битрейта : Переменный
Битрейт : 619 Кбит/сек
Каналы : 2 канала
ChannelLayout : L R
Частота : 48,0 КГц
Частота кадров : 10,417 кадров/сек (4608 SPF)
Битовая глубина : 24 бит
Метод сжатия : Без потерь
Размер потока : 431 Мбайт (2%)
Заголовок : Isolated Music Score By Stanley Myers
Библиотека кодирования : Lavf58.12.100
Язык : English
Default : Нет
Forced : Нет

Текст #1
Идентификатор : 6
Формат : UTF-8
Идентификатор кодека : S_TEXT/UTF8
Идентификатор кодека/Информация : UTF-8 Plain Text
Продолжительность : 1 ч. 37 м.
Битрейт : 27 бит/сек
ElementCount : 775
Размер потока : 19,9 Кбайт (0%)
Язык : English
Default : Нет
Forced : Нет

Текст #2
Идентификатор : 7
Формат : PGS
Режим смешивания : zlib
Идентификатор кодека : S_HDMV/PGS
Идентификатор кодека/Информация : Picture based subtitle format used on BDs/HD-DVDs
Продолжительность : 1 ч. 37 м.
Битрейт : 23,2 Кбит/сек
ElementCount : 1550
Размер потока : 16,1 Мбайт (0%)
Язык : English
Default : Нет
Forced : Нет

Меню
00:00:00.000 : :Глава 01
00:01:18.078 : :Глава 02
00:10:35.676 : :Глава 03
00:16:10.219 : :Глава 04
00:19:36.383 : :Глава 05
00:24:34.681 : :Глава 06
00:35:22.703 : :Глава 07
00:39:35.122 : :Глава 08
00:42:04.355 : :Глава 09
00:48:53.055 : :Глава 10
00:52:34.901 : :Глава 11
00:54:41.987 : :Глава 12
01:02:30.580 : :Глава 13
01:10:04.658 : :Глава 14
01:18:12.771 : :Глава 15
01:22:26.775 : :Глава 16
01:31:31.319 : :Глава 17
01:35:15.459 : :Глава 18

Скриншоты
[align=center]


[/align]
 

Вложения

  • 89,6 KB Просмотры: 0
    Личеров 0
    Сидеров 0
    Файлов 1
    Объем 17,7 GB

Привет!

Мы группа людей которые решили помочь другим в решении их проблем, а так же пользователям с поиском самых свежих и качественных инфопродуктов. За 4 с небольшим месяца мы создали этот форум на который заходят ежедневно тысячи человек и посещаемость постоянно растёт. Мы создали панель лицензирования для защиты PHP скриптов от воровства и SEO панель для мониторинга наших сайтов и выбора верной стратегии их развития. Мы надеемся что то что мы создали пригодится Вам и возможно Вы поможете нам развиваться и совершенствоваться вместе с Вами.

Статистика форума

Темы
406.698
Сообщения
465.161
Пользователи
84.787
Новый пользователь
Freckle

Приложения форума для iOS и Android


У ркн там нет власти ;)
Приватные разговоры
Помощь Пользователи
    Вы не присоединились ни к одной комнате.