За последнюю неделю опубликовано 60 новых материалов.
Инструкция новичку Путеводитель по форуму Прокси для Telegram Показать подсказки , это бомба!

Скачать Лучший друг моего мужа [01-02 из 02] (2010) DVD5 | Лицензия бесплатно через торрент

  • Поучаствуй (в качестве покупателя) в любых пяти совместных покупках (кроме завершённых и "Моментальных") и получи группу "Новичок" навсегда -> ссылка на раздел
  • Получай до 480 рублей за каждого приглашенного пользователя!
    представляем Вам очередное расширение партнерской программы, подробности описаны тут -> ссылка
  • 90% материалов доступно к скачиванию после простой регистрации!
    Если же ты хочешь скачивать материалы без требования оставлять отзывы то получи группу "Новичок", 10 способов повышения описаны тут -> ссылка
  • К сожалению количество битых ссылок растет и мы уже не можем их оперативно восстанавливать поэтому просим помощи у каждого нашего пользователя.
    С сегодняшнего дня, за каждую восстановленную ссылку мы заплатим Вам.
    Подробнее тут -> ссылка
  • Перенесем твои заслуги с другого ресурса!
    Мы понимаем как сложно прокачивать аккаунты на форумах, вроде раскачал аккаунт, а тут появляется ресурс в 100 раз круче но тоже с системой прокачки и снова качать аккаунт...
    Предлагаем вам перенести Ваши заслуги на другом подобном ресурсе к нам.
    Подробности описаны тут -> ссылка
  • Вы можете получать по 2.5% с каждой покупки и продажи на маркете! Подробности в теме Партнёрская программа
Если Вы не хотите скачивать, Вы всегда можетепосмотретьонлайн, просто нажмите кнопку ниже :

Открыть плеер

Torrent_Bot

Торрент-Бот
Бот форума
4 Окт 2016
90
168
20
Страна: Россия
Студия: Кинокомпания «Атлантик»
Дистрибьютор: «СОЮЗ Видео»
Жанр: Мелодрама
Год выпуска: 2010
Продолжительность: 102 мин.
Перевод: Не требуется
Cубтитры: нет
Режиссер: Алёна Званцева
В ролях: Наталия Вдовина (Чернова), Сергей Шнырев, Владимир Виноградов, Анастасия Лебедева, Петр Кислов, Ольга Филиппова, Александр Жулин, Виктория Савина, Юрий Кузнецов«Чувства к женщине приводят к концу дружбы двух мужчин…..»Описание:
Это история благополучной с виду семьи, состоящей из отца, матери и их недавно повзрослевшей дочери. Однажды, во время семейного ужина, они знакомятся с человеком, который случайным образом связан со скелетом, хранящимся в их семейном шкафу. Эта встреча резко меняет их жизнь, и теперь чувствам отца и матери предстоит серьезная проверка. Но какими бы тяжелыми не были их взаимные признания, эти события позволят им разглядеть что-то очень важное рядом с собой, что долгое время оставалось незаметным.

на озон ру, 2010 год
mediainfo (по 1 вобу)
Видео
Идентификатор : 224 (0xE0)
Формат : MPEG Video
Версия формата : Version 2
Профиль формата : [email protected]
Параметр BVOP формата : Да
Параметр матрицы формата : По умолчанию
Продолжительность : 29 м.
Вид битрейта : Переменный
Битрейт : 4570 Кбит/сек
Номинальный битрейт : 9000 Кбит/сек
Ширина : 720 пикс.
Высота : 576 пикс.
Соотношение сторон : 4:3
Частота кадров : 25,000 кадр/сек
Стандарт вещания : PAL
Цветовое пространство : YUV
Подвыборка цветности : 4:2:0
Битовая глубина : 8 бит
Тип развёртки : Чересстрочная
Порядок развёртки : Верхнее поле первое
Метод сжатия : С потерями
Бит/(Пиксели*Кадры) : 0.441
Размер потока : 963 Мбайт (94%)

Аудио
Идентификатор : 189 (0xBD)-128 (0x80)
Формат : AC-3
Формат/Информация : Audio Coding 3
Расширение режима : CM (complete main)
Режим смешивания : DVD-Video
Продолжительность : 29 м.
Вид битрейта : Постоянный
Битрейт : 192 Кбит/сек
Каналы : 2 канала
Расположение каналов : Front: L R
Частота : 48,0 КГц
Битовая глубина : 16 бит
Метод сжатия : С потерями
Размер потока : 40,5 Мбайт (4%)
Тип релиза: DVD5
Контейнер: DVD-Video
Видео: PAL 4:3 (720x576) VBR 25.00fps
Аудио: Russian (Dolby AC3, 2 ch) AC3 48000Hz stereo 192Kbps
Меню: анимированное, озвученное.
Сканы
2be19bacac591c2491eff73cae1a6cbf.jpg94a036deca6f26eda864bddada44e50c.jpg7c3a24df16282f8e7a48dc8ed08d72fe.jpgee5f5a2a9a9050f9d2d8ee190b91e984.jpg
Сэмпл
Скриншоты
d8093d1cd74e21bd405af0432f331fba.jpg571e934ff35e7efa9df9d0aa23b1cc9f.jpg1e5a93a44e494c7e24783e3321a5e175.jpgd0469d4cca50efe9652b99c335989bc8.jpg82dddd81b8bc6ab3c000e31e0bbfad8e.jpg70ee74b1c7bacb25e016f17a239f269c.jpga55009ea3d7ccdc9f095cc46ca24415c.jpg0442c3f03c53c108bcf68482c6986e4b.jpgb18c91d5d60fde8e9a73452eaafb5c51.jpg
 

Вложения

Привет!

Мы группа людей которые решили помочь другим в решении их проблем, а так же пользователям с поиском самых свежих и качественных инфопродуктов. За 4 с небольшим месяца мы создали этот форум на который заходят ежедневно тысячи человек и посещаемость постоянно растёт. Мы создали панель лицензирования для защиты PHP скриптов от воровства и SEO панель для мониторинга наших сайтов и выбора верной стратегии их развития. Мы надеемся что то что мы создали пригодится Вам и возможно Вы поможете нам развиваться и совершенствоваться вместе с Вами.

Статистика форума

Темы
410.948
Сообщения
469.359
Пользователи
88.325
Новый пользователь
Archikon

Приложения форума для iOS и Android


У ркн там нет власти ;)
Приватные разговоры
Помощь Пользователи
    Вы не присоединились ни к одной комнате.