За последнюю неделю опубликовано 49 новых материалов.
Инструкция новичку Путеводитель по форуму Прокси для Telegram Показать подсказки , это бомба!

Скачать Лучшие враги / The Best of Enemies (2019) WEB-DLRip-AVC от ExKinoRay | P бесплатно через торрент

  • Поучаствуй (в качестве покупателя) в любых пяти совместных покупках (кроме завершённых и "Моментальных") и получи группу "Новичок" навсегда -> ссылка на раздел
  • Получай до 480 рублей за каждого приглашенного пользователя!
    представляем Вам очередное расширение партнерской программы, подробности описаны тут -> ссылка
  • 90% материалов доступно к скачиванию после простой регистрации!
    Если же ты хочешь скачивать материалы без требования оставлять отзывы то получи группу "Новичок", 10 способов повышения описаны тут -> ссылка
  • К сожалению количество битых ссылок растет и мы уже не можем их оперативно восстанавливать поэтому просим помощи у каждого нашего пользователя.
    С сегодняшнего дня, за каждую восстановленную ссылку мы заплатим Вам.
    Подробнее тут -> ссылка
  • Перенесем твои заслуги с другого ресурса!
    Мы понимаем как сложно прокачивать аккаунты на форумах, вроде раскачал аккаунт, а тут появляется ресурс в 100 раз круче но тоже с системой прокачки и снова качать аккаунт...
    Предлагаем вам перенести Ваши заслуги на другом подобном ресурсе к нам.
    Подробности описаны тут -> ссылка
  • Вы можете получать по 2.5% с каждой покупки и продажи на маркете! Подробности в теме Партнёрская программа
Если Вы не хотите скачивать, Вы всегда можетепосмотретьонлайн, просто нажмите кнопку ниже :

Открыть плеер

Torrent_Bot

Торрент-Бот
Бот форума
4 Окт 2016
90
166
20


Название: Лучшие враги
Оригинальное название: The Best of Enemies
Год выпуска: 2019
Жанр:Драма, биография, история
Режиссер: Робин Бисселл
В ролях: Тараджи П. Хенсон, Сэм Рокуэлл, Бабу Сизей, Ник Сирси, Уэс Бентли, Энн Хеч, Брюс МакГилл, Джон Галлахер мл., Ник Ковальчук, Гилберт Гленн Браун

Описание: История о невероятной дружбе между чернокожей правозащитницей Энн Атуотер и членом Ку-клукс-клана Клэйборном Эллисом. Они были ожесточёнными противниками, пока не попали в один комитет по решению расового разделения в школе. Давних врагов объединяет забота о будущем своих детей.




Страна: США
Студия: Astute Films, Material Pictures
Продолжительность: 02:13:23
Перевод: Профессиональный многоголосый (HDRezka Studio)
Субтитры: Русские (forced на надписи), английские


БЕЗ КАКОЙ-ЛИБО РЕКЛАМЫ!

Формат: MKV
Качество: WEB-DLRip-AVC
Видео: MPEG-4 AVC, 720x300 (2.40:1), 23.976 fps, 1360 Kbps, 0.263 bit/pixel
Аудио #01: 48 kHz, AC3, 2.0, 192 Kbps | RUS | RUS |

ОтчетМедиаИнфо
General
Unique ID : 243972144971019840158807798353802117086 (0xB78B537216BC42FFA68BEB09603D3FDE)
Complete name : F:The.Best.of.Enemies.2019.MVO.WEB-DL.AVC.ExKinoRay.mkv
Format : Matroska
Format version : Version 2
File size : 1.44 GiB
Duration : 2 h 13 min
Overall bit rate : 1 550 kb/s
Movie name : The Best of Enemies 2019 from ExKinoRay
Encoded date : UTC 2019-06-25 23:15:03
Writing application : mkvmerge v5.6.0 ('Kenya Kane') built on May 27 2012 16:44:04
Writing library : libebml v1.2.3 + libmatroska v1.3.0

Video
ID : 1
Format : AVC
Format/Info : Advanced Video Codec
Format profile : [email protected]
Format settings, CABAC : Yes
Format settings, ReFrames : 11 frames
Codec ID : V_MPEG4/ISO/AVC
Duration : 2 h 13 min
Bit rate : 1 360 kb/s
Width : 720 pixels
Height : 300 pixels
Display aspect ratio : 2.40:1
Frame rate mode : Constant
Frame rate : 23.976 (24000/1001) FPS
Original frame rate : 23.976 (23976/1000) FPS
Color space : YUV
Chroma subsampling : 4:2:0
Bit depth : 8 bits
Scan type : Progressive
Bits/(Pixel*Frame) : 0.263
Stream size : 1.24 GiB (86%)
Title : Enigma
Writing library : x264 core 152 r2851 ba24899
Encoding settings : cabac=1 / ref=11 / deblock=1:-2:-2 / analyse=0x3:0x113 / me=umh / subme=10 / psy=1 / psy_rd=0.98:0.05 / mixed_ref=1 / me_range=32 / chroma_me=1 / trellis=2 / 8x8dct=1 / cqm=0 / deadzone=21,11 / fast_pskip=0 / chroma_qp_offset=-3 / threads=9 / lookahead_threads=2 / sliced_threads=0 / nr=0 / decimate=0 / interlaced=0 / bluray_compat=0 / constrained_intra=0 / bframes=10 / b_pyramid=2 / b_adapt=2 / b_bias=0 / direct=3 / weightb=1 / open_gop=0 / weightp=2 / keyint=240 / keyint_min=23 / scenecut=40 / intra_refresh=0 / rc=2pass / mbtree=0 / bitrate=1360 / ratetol=1.0 / qcomp=0.65 / qpmin=0 / qpmax=51 / qpstep=4 / cplxblur=20.0 / qblur=0.5 / ip_ratio=1.30 / pb_ratio=1.20 / aq=3:0.80
Default : Yes
Forced : No
Color range : Limited
Color primaries : BT.709
Transfer characteristics : BT.709
Matrix coefficients : BT.709

Audio
ID : 2
Format : AC-3
Format/Info : Audio Coding 3
Mode extension : CM (complete main)
Format settings, Endianness : Big
Codec ID : A_AC3
Duration : 2 h 13 min
Bit rate mode : Constant
Bit rate : 192 kb/s
Channel(s) : 2 channels
Channel positions : Front: L R
Sampling rate : 48.0 kHz
Frame rate : 31.250 FPS (1536 spf)
Compression mode : Lossy
Stream size : 183 MiB (12%)
Title : MVO
Language : Russian
Default : Yes
Forced : No

Text #1
ID : 3
Format : UTF-8
Codec ID : S_TEXT/UTF8
Codec ID/Info : UTF-8 Plain Text
Title : Forced
Language : Russian
Default : Yes
Forced : No

Text #2
ID : 4
Format : UTF-8
Codec ID : S_TEXT/UTF8
Codec ID/Info : UTF-8 Plain Text
Language : English
Default : No
Forced : No

Text #3
ID : 5
Format : UTF-8
Codec ID : S_TEXT/UTF8
Codec ID/Info : UTF-8 Plain Text
Title : SDH
Language : English
Default : No
Forced : No

Menu
00:00:00.000 : en:1
00:07:21.566 : en:2
00:15:34.349 : en:3
00:24:48.653 : en:4
00:31:44.192 : en:5
00:38:54.746 : en:6
00:46:42.838 : en:7
00:55:18.602 : en:8
01:05:32.464 : en:9
01:12:58.368 : en:10
01:19:04.525 : en:11
01:27:30.238 : en:12
01:35:23.084 : en:13
01:42:49.196 : en:14
01:56:24.386 : en:15
01:59:50.674 : en:16






Релиз от:

Автор релиза:
 

Вложения

  • 15,4 KB Просмотры: 1
    Личеров 0
    Сидеров 0
    Файлов 1
    Объем 1,4 GB

Привет!

Мы группа людей которые решили помочь другим в решении их проблем, а так же пользователям с поиском самых свежих и качественных инфопродуктов. За 4 с небольшим месяца мы создали этот форум на который заходят ежедневно тысячи человек и посещаемость постоянно растёт. Мы создали панель лицензирования для защиты PHP скриптов от воровства и SEO панель для мониторинга наших сайтов и выбора верной стратегии их развития. Мы надеемся что то что мы создали пригодится Вам и возможно Вы поможете нам развиваться и совершенствоваться вместе с Вами.

Статистика форума

Темы
410.888
Сообщения
469.442
Пользователи
87.903
Новый пользователь
xzonder

Приложения форума для iOS и Android


У ркн там нет власти ;)
Приватные разговоры
Помощь Пользователи
    Вы не присоединились ни к одной комнате.