За последнюю неделю опубликовано 34 новых материалов.
Инструкция новичку Путеводитель по форуму Прокси для Telegram Показать подсказки , это бомба!

Скачать Luca Aquino - Italian Songbook [24bit Hi-Res] (2019) FLAC бесплатно через торрент

  • Поучаствуй (в качестве покупателя) в любых пяти совместных покупках (кроме завершённых и "Моментальных") и получи группу "Новичок" навсегда -> ссылка на раздел
  • Получай до 480 рублей за каждого приглашенного пользователя!
    представляем Вам очередное расширение партнерской программы, подробности описаны тут -> ссылка
  • 90% материалов доступно к скачиванию после простой регистрации!
    Если же ты хочешь скачивать материалы без требования оставлять отзывы то получи группу "Новичок", 10 способов повышения описаны тут -> ссылка
  • К сожалению количество битых ссылок растет и мы уже не можем их оперативно восстанавливать поэтому просим помощи у каждого нашего пользователя.
    С сегодняшнего дня, за каждую восстановленную ссылку мы заплатим Вам.
    Подробнее тут -> ссылка
  • Перенесем твои заслуги с другого ресурса!
    Мы понимаем как сложно прокачивать аккаунты на форумах, вроде раскачал аккаунт, а тут появляется ресурс в 100 раз круче но тоже с системой прокачки и снова качать аккаунт...
    Предлагаем вам перенести Ваши заслуги на другом подобном ресурсе к нам.
    Подробности описаны тут -> ссылка
  • Вы можете получать по 2.5% с каждой покупки и продажи на маркете! Подробности в теме Партнёрская программа

Torrent_Bot

Торрент-Бот
Бот форума
4 Окт 2016
93
160
20



Исполнитель: Luca Aquino
Название: Italian Songbook
Страна: Italy
Жанр: Crossover-Jazz
Год: 2019
Продолжительность: 00:52:48
Битрейт аудио: Lossless
Формат/Кодек: FLAC
Тип рипа: tracks
Разрядность: 24/48
Количество каналов: 2.0

01. Deborah’s Theme (Ennio Morricone) (02:41)
02. Scalinatella (Giuseppe Cioffi) (05:01)
03. La canzone dell’amore perduto (Fabrizio De André) (04:30)
04. Caruso (Lucio Dalla) (03:55)
05. Storia d’amore (Adriano Celentano) (04:49)
06. Almeno tu nell’universo (Maurizio Fabrizio) (05:40)
07. Un giorno dopo l’altro (Luigi Tenco) (04:07)
08. Era de maggio (Mario Costa) (05:15)
09. So che ti perderò (Chet Baker) (05:03)
10. Anema e core (Salvatore D’Esposito) (03:54)
11. Pippo non lo sa (Gorni Kramer) (04:36)
12. La strada (Nino Rota) (03:17)

DR
foobar2000 1.4.4 / Замер динамического диапазона (DR) 1.1.1
Дата отчёта: 2019-06-15 08:00:06

--------------------------------------------------------------------------------
Анализ: Luca Aquino / Italian Songbook
--------------------------------------------------------------------------------

DR Пики RMS Продолжительность трека
--------------------------------------------------------------------------------
DR10 -1.92 дБ -15.83 дБ 2:41 01-Deborah's Theme
DR11 -0.85 дБ -16.12 дБ 5:02 02-Scalinatella
DR11 -0.71 дБ -14.36 дБ 4:30 03-La canzone dell' amore perduto
DR10 -0.72 дБ -14.54 дБ 3:55 04-Caruso
DR12 -0.71 дБ -15.08 дБ 4:50 05-Storia d'amore
DR10 -0.71 дБ -14.79 дБ 5:40 06-Almeno tu nell' universo
DR11 -0.71 дБ -15.61 дБ 4:08 07-Un giorno dopo l'altro
DR12 -0.81 дБ -16.79 дБ 5:16 08-Era de maggio
DR11 -0.79 дБ -14.33 дБ 5:04 09-So che ti perderò
DR11 -0.71 дБ -15.85 дБ 3:54 10-Anema e core
DR10 -0.89 дБ -12.49 дБ 4:37 11-Pippo non lo sa
DR9 -1.21 дБ -14.94 дБ 3:18 12-La strada
--------------------------------------------------------------------------------

Количество треков: 12
Реальные значения DR: DR11

Частота: 48000 Гц
Каналов: 2
Разрядность: 24
Битрейт: 1328 кбит/с
Кодек: FLAC
================================================================================
 

Вложения

  • 12,2 KB Просмотры: 1
    Личеров 0
    Сидеров 0
    Файлов 13
    Объем 543,4 MB

Привет!

Мы группа людей которые решили помочь другим в решении их проблем, а так же пользователям с поиском самых свежих и качественных инфопродуктов. За 4 с небольшим месяца мы создали этот форум на который заходят ежедневно тысячи человек и посещаемость постоянно растёт. Мы создали панель лицензирования для защиты PHP скриптов от воровства и SEO панель для мониторинга наших сайтов и выбора верной стратегии их развития. Мы надеемся что то что мы создали пригодится Вам и возможно Вы поможете нам развиваться и совершенствоваться вместе с Вами.

Статистика форума

Темы
406.600
Сообщения
464.997
Пользователи
84.280
Новый пользователь
gogan67

Приложения форума для iOS и Android


У ркн там нет власти ;)
Приватные разговоры
Помощь Пользователи
    Вы не присоединились ни к одной комнате.