За последнюю неделю опубликовано 57 новых материалов.
Инструкция новичку Путеводитель по форуму Прокси для Telegram Показать подсказки , это бомба!

Скачать Ложное искушение / The Good Shepherd (2006) WEB-DLRip-AVC | D | Open Matte бесплатно через торрент

  • Поучаствуй (в качестве покупателя) в любых пяти совместных покупках (кроме завершённых и "Моментальных") и получи группу "Новичок" навсегда -> ссылка на раздел
  • Получай до 480 рублей за каждого приглашенного пользователя!
    представляем Вам очередное расширение партнерской программы, подробности описаны тут -> ссылка
  • 90% материалов доступно к скачиванию после простой регистрации!
    Если же ты хочешь скачивать материалы без требования оставлять отзывы то получи группу "Новичок", 10 способов повышения описаны тут -> ссылка
  • К сожалению количество битых ссылок растет и мы уже не можем их оперативно восстанавливать поэтому просим помощи у каждого нашего пользователя.
    С сегодняшнего дня, за каждую восстановленную ссылку мы заплатим Вам.
    Подробнее тут -> ссылка
  • Перенесем твои заслуги с другого ресурса!
    Мы понимаем как сложно прокачивать аккаунты на форумах, вроде раскачал аккаунт, а тут появляется ресурс в 100 раз круче но тоже с системой прокачки и снова качать аккаунт...
    Предлагаем вам перенести Ваши заслуги на другом подобном ресурсе к нам.
    Подробности описаны тут -> ссылка
  • Вы можете получать по 2.5% с каждой покупки и продажи на маркете! Подробности в теме Партнёрская программа
Если Вы не хотите скачивать, Вы всегда можетепосмотретьонлайн, просто нажмите кнопку ниже :

Открыть плеер

Torrent_Bot

Торрент-Бот
Бот форума
4 Окт 2016
92
163
20

Информация о фильме
Название: Ложное Искушение
Оригинальное название: The Good Shepherd
Год выхода: 2006
Жанр: триллер, драма, история
Режиссер: Роберт Де Ниро
В ролях: Мэтт Дэймон, Анджелина Джоли, Алек Болдуин, Роберт Де Ниро, Тэмми Блэнчард, Билли Крадап, Кир Далли, Майкл Гэмбон, Мартина Гедек, Уильям Херт, Тимоти Хаттон, Марк Иванир, Гэбриэл Махт, Ли Пэйс, Джо Пеши, Эдди Редмэйн, Джон Сешнз, Олег Стефан, Джон Туртурро

О фильме:
Эдвард Уилсон, целеустремленный молодой человек, полный идеалов, поступает на службу в OSS. Это решение изменяет не только ход его жизни, но и мировую историю. Уилсон создает самую мощную секретную организацию в мире — ЦРУ.
Он должен вести двойную жизнь, где двуличность — часть тебя. Никто, включая и его жену, и любимого сына, не может заставить Уилсона изменить своим принципам, которые вынуждают его никому не доверять и ради достижения цели принести в жертву все, в том числе и собственную семью.



Страна: США
Выпущено: Universal Pictures, Morgan Creek, American Zoetrope, Tribeca Productions
Продолжительность: 02:47:26
Перевод: Дублированный (со вставками MVO)
Субтитры: Русские, английские

Файл
Формат: Matroska
Качество: WEB-DLRip-AVC | Open Matte | Amazon *STARZ*
Видео: 1024x576 (16:9) at 23.976 fps, x264, ~1673 kbps
Аудио 1: AC3, 6 ch, 448 Kbps - Русский
Аудио 2: AC3, 6 ch, 448 Kbps - Английский
Формат субтитров: softsub (SRT)

***Релиз от:-=DoMiNo=-

M/I
x264 [info]: frame I:2111 Avg QP:14.22 size: 59399
x264 [info]: frame P:52545 Avg QP:15.67 size: 19997
x264 [info]: frame B:186072 Avg QP:18.39 size: 4964
x264 [info]: consecutive B-frames: 1.6% 1.3% 5.7% 38.5% 16.0% 25.0% 5.2% 4.5% 1.1% 0.7% 0.4%

General
Complete name : Ложное искушение (2006) Open Matte.mkv
Format : Matroska
Format version : Version 4
File size : 3.01 GiB
Duration : 2 h 47 min
Overall bit rate : 2 571 kb/s
Movie name : Ложное Искушение.(2006).WEB-DLRip-AVC.O.M.[-=DoMiNo=-]
Encoded date : UTC 2020-06-26 17:19:05
Writing application : mkvmerge v8.3.0 ('Over the Horizon') 32bit
Writing library : libebml v1.3.1 + libmatroska v1.4.2

Video
ID : 1
Format : AVC
Format/Info : Advanced Video Codec
Format profile : [email protected]
Format settings : CABAC / 12 Ref Frames
Format settings, CABAC : Yes
Format settings, Reference : 12 frames
Codec ID : V_MPEG4/ISO/AVC
Duration : 2 h 47 min
Bit rate : 1 673 kb/s
Width : 1 024 pixels
Height : 576 pixels
Display aspect ratio : 16:9
Frame rate mode : Constant
Frame rate : 23.976 (24000/1001) FPS
Color space : YUV
Chroma subsampling : 4:2:0
Bit depth : 8 bits
Scan type : Progressive
Bits/(Pixel*Frame) : 0.118
Stream size : 1.96 GiB (65%)
Title : RIP BY -=DoMiNo=- | Open Matte
Writing library : x264 core 160 r3000 33f9e14
Encoding settings : cabac=1 / ref=12 / deblock=1:-3:-2 / analyse=0x3:0x133 / me=umh / subme=10 / psy=1 / psy_rd=1.00:0.20 / mixed_ref=1 / me_range=32 / chroma_me=1 / trellis=2 / 8x8dct=1 / cqm=0 / deadzone=21,11 / fast_pskip=1 / chroma_qp_offset=-3 / threads=6 / lookahead_threads=1 / sliced_threads=0 / nr=0 / decimate=1 / interlaced=0 / bluray_compat=0 / constrained_intra=0 / bframes=10 / b_pyramid=2 / b_adapt=2 / b_bias=0 / direct=1 / weightb=1 / open_gop=0 / weightp=2 / keyint=250 / keyint_min=23 / scenecut=40 / intra_refresh=0 / rc_lookahead=60 / rc=crf / mbtree=0 / crf=19.0 / qcomp=0.60 / qpmin=0 / qpmax=69 / qpstep=4 / vbv_maxrate=50000 / vbv_bufsize=62500 / crf_max=0.0 / nal_hrd=none / filler=0 / ip_ratio=1.40 / pb_ratio=1.30 / aq=3:0.80
Language : English
Default : Yes
Forced : No
Color range : Limited
Color primaries : BT.709
Transfer characteristics : BT.709
Matrix coefficients : BT.709

Audio #1
ID : 2
Format : AC-3
Format/Info : Audio Coding 3
Commercial name : Dolby Digital
Codec ID : A_AC3
Duration : 2 h 47 min
Bit rate mode : Constant
Bit rate : 448 kb/s
Channel(s) : 6 channels
Channel layout : L R C LFE Ls Rs
Sampling rate : 48.0 kHz
Frame rate : 31.250 FPS (1536 SPF)
Bit depth : 16 bits
Compression mode : Lossy
Stream size : 536 MiB (17%)
Language : Russian
Service kind : Complete Main
Default : Yes
Forced : No

Audio #2
ID : 3
Format : AC-3
Format/Info : Audio Coding 3
Commercial name : Dolby Digital
Codec ID : A_AC3
Duration : 2 h 47 min
Bit rate mode : Constant
Bit rate : 448 kb/s
Channel(s) : 6 channels
Channel layout : L R C LFE Ls Rs
Sampling rate : 48.0 kHz
Frame rate : 31.250 FPS (1536 SPF)
Bit depth : 16 bits
Compression mode : Lossy
Stream size : 536 MiB (17%)
Language : English
Service kind : Complete Main
Default : No
Forced : No

Text #1
ID : 4
Format : UTF-8
Codec ID : S_TEXT/UTF8
Codec ID/Info : UTF-8 Plain Text
Duration : 2 h 37 min
Bit rate : 93 b/s
Count of elements : 1959
Stream size : 108 KiB (0%)
Language : Russian
Default : No
Forced : No

Text #2
ID : 5
Format : UTF-8
Codec ID : S_TEXT/UTF8
Codec ID/Info : UTF-8 Plain Text
Duration : 2 h 38 min
Bit rate : 53 b/s
Count of elements : 2126
Stream size : 62.7 KiB (0%)
Language : English
Default : No
Forced : No

Menu
00:00:00.000 : en:Глава 01
00:05:30.000 : en:Глава 02
00:11:00.000 : en:Глава 03
00:16:30.000 : en:Глава 04
00:22:00.000 : en:Глава 05
00:27:30.000 : en:Глава 06
00:33:00.000 : en:Глава 07
00:38:30.000 : en:Глава 08
00:44:00.000 : en:Глава 09
00:49:30.000 : en:Глава 10
00:55:00.000 : en:Глава 11
01:00:30.000 : en:Глава 12
01:06:00.000 : en:Глава 13
01:11:30.000 : en:Глава 14
01:17:00.000 : en:Глава 15
01:22:30.000 : en:Глава 16
01:28:00.000 : en:Глава 17
01:33:30.000 : en:Глава 18
01:39:00.000 : en:Глава 19
01:44:30.000 : en:Глава 20
01:50:00.000 : en:Глава 21
01:55:30.000 : en:Глава 22
02:01:00.000 : en:Глава 23
02:06:30.000 : en:Глава 24
02:12:00.000 : en:Глава 25
02:17:30.000 : en:Глава 26
02:23:00.000 : en:Глава 27
02:28:30.000 : en:Глава 28
02:34:00.000 : en:Глава 29
02:39:30.000 : en:Глава 30
02:45:00.000 : en:Глава 31
Примечание & Сравнения:
Исходник видео WEB-DL Amazon STARZ (периодически появляется логотип).
Open Matte-версия фильма имеет большее наполнение кадра по сравнению с Blu-ray.

[URL="http://www.framecompare.com/image-compare/screenshotcomparison/777WLNNX" target="_blank">***Сравнения => BD vs WEB-DL Open Matte
Скриншоты
 

Вложения

  • 16 KB Просмотры: 0
    Личеров 0
    Сидеров 0
    Файлов 1
    Объем 3 GB

Привет!

Мы группа людей которые решили помочь другим в решении их проблем, а так же пользователям с поиском самых свежих и качественных инфопродуктов. За 4 с небольшим месяца мы создали этот форум на который заходят ежедневно тысячи человек и посещаемость постоянно растёт. Мы создали панель лицензирования для защиты PHP скриптов от воровства и SEO панель для мониторинга наших сайтов и выбора верной стратегии их развития. Мы надеемся что то что мы создали пригодится Вам и возможно Вы поможете нам развиваться и совершенствоваться вместе с Вами.

Статистика форума

Темы
406.698
Сообщения
465.162
Пользователи
84.789
Новый пользователь
Setis

Приложения форума для iOS и Android


У ркн там нет власти ;)
Приватные разговоры
Помощь Пользователи
    Вы не присоединились ни к одной комнате.