За последнюю неделю опубликовано 30 новых материалов.
Инструкция новичку Путеводитель по форуму Прокси для Telegram Показать подсказки , это бомба!

Скачать Лохматый папа / The Shaggy Dog (2006) WEB-DLRip-AVC | D | Open Matte бесплатно через торрент

  • Поучаствуй (в качестве покупателя) в любых пяти совместных покупках (кроме завершённых и "Моментальных") и получи группу "Новичок" навсегда -> ссылка на раздел
  • Получай до 480 рублей за каждого приглашенного пользователя!
    представляем Вам очередное расширение партнерской программы, подробности описаны тут -> ссылка
  • 90% материалов доступно к скачиванию после простой регистрации!
    Если же ты хочешь скачивать материалы без требования оставлять отзывы то получи группу "Новичок", 10 способов повышения описаны тут -> ссылка
  • К сожалению количество битых ссылок растет и мы уже не можем их оперативно восстанавливать поэтому просим помощи у каждого нашего пользователя.
    С сегодняшнего дня, за каждую восстановленную ссылку мы заплатим Вам.
    Подробнее тут -> ссылка
  • Перенесем твои заслуги с другого ресурса!
    Мы понимаем как сложно прокачивать аккаунты на форумах, вроде раскачал аккаунт, а тут появляется ресурс в 100 раз круче но тоже с системой прокачки и снова качать аккаунт...
    Предлагаем вам перенести Ваши заслуги на другом подобном ресурсе к нам.
    Подробности описаны тут -> ссылка
  • Вы можете получать по 2.5% с каждой покупки и продажи на маркете! Подробности в теме Партнёрская программа
Если Вы не хотите скачивать, Вы всегда можетепосмотретьонлайн, просто нажмите кнопку ниже :

Открыть плеер

Torrent_Bot

Торрент-Бот
Бот форума
4 Окт 2016
93
160
20

Информация о фильме
Название: Лохматый папа
Оригинальное название: The Shaggy Dog
Год выхода: 2006
Жанр: фэнтези, комедия, семейный
Режиссер: Брайан Роббинс
В ролях: Тим Аллен, Кристин Дэвис, Зена Грэй, Спенсер Бреслин, Дэнни Гловер, Роберт Дауни мл, Джошуа Леонард, Шон Пайфром, Бесс Вол, Джэррад Пол

О фильме:
Все начинается с того, что заместитель окружного прокурора Дэйв Даглас берется за дело, связанное с лабораторией, в которой проводятся опыты над животными. В процессе работы он подвергается воздействию экспериментального сверхсекретного чудо-препарата, вызывающего мутацию генов.
В результате Дэйв начинает временами превращаться в собаку; это очень мешает его карьере, но в то же время помогает ему лучше узнать самого себя и свою семью. Переосмыслив свою жизнь, Дэйв мечтает о том, чтобы вновь стать примерным мужем и отцом, но вначале он должен выполнить благородную миссию — предотвратить осуществление коварных замыслов тех, кто стоит за изобретением сыворотки, превратившей его в шаловливого пса…



Страна: США
Выпущено: Walt Disney Pictures, Mandeville Films, Buena Vista Pictures
Продолжительность: 01:38:36
Перевод: Профессиональный (дублированный) Невафильм
Субтитры: Russian, English

Файл
Формат: Matroska
Качество: WEB-DLRip-AVC | Open Matte | Amazon
Видео: 1024x576 (16x9) at 23.976 fps, [email protected], ~2594 kbps, 0.183 bpp
Аудио: AC3, 6 ch, ~384 kbps - | Русский | -
Формат субтитров: softsub (SRT)

***Релиз от:-=DoMiNo=-

M/I
x264 [info]: frame I:1410 Avg QP:16.88 size: 76060
x264 [info]: frame P:33462 Avg QP:17.82 size: 27384
x264 [info]: frame B:106963 Avg QP:20.06 size: 8365
x264 [info]: consecutive B-frames: 2.0% 2.9% 5.7% 49.6% 12.3% 22.4% 2.3% 1.7% 0.6% 0.5%

General
Format : Matroska
Format version : Version 4
File size : 2.05 GiB
Duration : 1 h 38 min
Overall bit rate : 2 980 kb/s
Movie name : Лохматый папа.(2006).WEB-DLRip-AVC.O.M.[-=DoMiNo=-]
Encoded date : UTC 2020-06-08 18:50:19
Writing application : mkvmerge v47.0.0 ('Black Flag') 64-bit
Writing library : libebml v1.3.10 + libmatroska v1.5.2
Cover : Yes
Attachments : cover.jpg / cover 2.jpg

Video
ID : 1
Format : AVC
Format/Info : Advanced Video Codec
Format profile : [email protected]
Format settings : CABAC / 10 Ref Frames
Format settings, CABAC : Yes
Format settings, Reference : 10 frames
Codec ID : V_MPEG4/ISO/AVC
Duration : 1 h 38 min
Bit rate : 2 594 kb/s
Width : 1 024 pixels
Height : 576 pixels
Display aspect ratio : 16:9
Frame rate mode : Constant
Frame rate : 23.976 (24000/1001) FPS
Color space : YUV
Chroma subsampling : 4:2:0
Bit depth : 8 bits
Scan type : Progressive
Bits/(Pixel*Frame) : 0.183
Stream size : 1.79 GiB (87%)
Title : -=DoMiNo=- | Open Matte
Writing library : x264 core 160 r3000 33f9e14
Encoding settings : cabac=1 / ref=10 / deblock=1:-2:-2 / analyse=0x3:0x133 / me=umh / subme=10 / psy=1 / psy_rd=1.05:0.15 / mixed_ref=1 / me_range=32 / chroma_me=1 / trellis=2 / 8x8dct=1 / cqm=0 / deadzone=21,11 / fast_pskip=0 / chroma_qp_offset=-3 / threads=6 / lookahead_threads=1 / sliced_threads=0 / nr=0 / decimate=1 / interlaced=0 / bluray_compat=0 / constrained_intra=0 / bframes=9 / b_pyramid=2 / b_adapt=2 / b_bias=0 / direct=1 / weightb=1 / open_gop=0 / weightp=2 / keyint=250 / keyint_min=23 / scenecut=40 / intra_refresh=0 / rc_lookahead=60 / rc=crf / mbtree=0 / crf=19.0 / qcomp=0.60 / qpmin=0 / qpmax=69 / qpstep=4 / vbv_maxrate=50000 / vbv_bufsize=62500 / crf_max=0.0 / nal_hrd=none / filler=0 / ip_ratio=1.40 / pb_ratio=1.30 / aq=3:1.00
Language : English
Default : Yes
Forced : No
Color range : Limited
Color primaries : BT.709
Transfer characteristics : BT.709
Matrix coefficients : BT.709

Audio
ID : 2
Format : AC-3
Format/Info : Audio Coding 3
Commercial name : Dolby Digital
Codec ID : A_AC3
Duration : 1 h 38 min
Bit rate mode : Constant
Bit rate : 384 kb/s
Channel(s) : 6 channels
Channel layout : L R C LFE Ls Rs
Sampling rate : 48.0 kHz
Frame rate : 31.250 FPS (1536 SPF)
Compression mode : Lossy
Stream size : 271 MiB (13%)
Title : DUB_[Невафильм]
Language : Russian
Service kind : Complete Main
Default : Yes
Forced : No

Text #1
ID : 3
Format : UTF-8
Codec ID : S_TEXT/UTF8
Codec ID/Info : UTF-8 Plain Text
Duration : 1 h 21 min
Bit rate : 1 b/s
Count of elements : 26
Stream size : 959 Bytes (0%)
Title : forced
Language : Russian
Default : No
Forced : Yes

Text #2
ID : 4
Format : UTF-8
Codec ID : S_TEXT/UTF8
Codec ID/Info : UTF-8 Plain Text
Duration : 1 h 31 min
Bit rate : 108 b/s
Count of elements : 1392
Stream size : 73.1 KiB (0%)
Title : Full
Language : Russian
Default : Yes
Forced : No

Text #3
ID : 5
Format : UTF-8
Codec ID : S_TEXT/UTF8
Codec ID/Info : UTF-8 Plain Text
Duration : 1 h 35 min
Bit rate : 82 b/s
Count of elements : 1719
Stream size : 57.7 KiB (0%)
Language : English
Default : No
Forced : No

Menu
00:00:00.000 : en:1. Opening Credits/Tibet
00:05:50.000 : en:2. Forrester Trial
00:07:57.000 : en:3. Fountain of Youth
00:10:11.000 : en:4. Protest
00:14:57.000 : en:5. Dog Bite
00:18:43.000 : en:6. Next Morning
00:24:00.000 : en:7. Coutrtoom Dog
00:27:27.000 : en:8. Animal Shelter
00:32:07.000 : en:9. Return Home
00:35:15.000 : en:10. Dog Park
00:40:50.000 : en:11. Forrester on Trial
00:45:32.000 : en:12. Cat Chase
00:50:41.000 : en:13. Football Game
00:55:22.000 : en:14. Missed Anniversary
00:59:32.000 : en:15. Break-In
01:05:47.000 : en:16. I'm Dad
01:10:07.000 : en:17. Captured
01:17:02.000 : en:18. Escape
01:23:47.000 : en:19. Courtroom Finale
01:30:03.000 : en:20. Hawaii/End Credits
Примечание & Сравнения:
Исходник видео WEB-DL Amazon.
Open Matte-версия фильма имеет большее наполнение кадра.

[URL="http://www.framecompare.com/image-compare/screenshotcomparison/991MJNNU" target="_blank">***Сравнения => BD vs WEB-DL Open Matte
Скриншоты
 

Вложения

  • 83,2 KB Просмотры: 0
    Личеров 0
    Сидеров 0
    Файлов 1
    Объем 2,1 GB

Привет!

Мы группа людей которые решили помочь другим в решении их проблем, а так же пользователям с поиском самых свежих и качественных инфопродуктов. За 4 с небольшим месяца мы создали этот форум на который заходят ежедневно тысячи человек и посещаемость постоянно растёт. Мы создали панель лицензирования для защиты PHP скриптов от воровства и SEO панель для мониторинга наших сайтов и выбора верной стратегии их развития. Мы надеемся что то что мы создали пригодится Вам и возможно Вы поможете нам развиваться и совершенствоваться вместе с Вами.

Статистика форума

Темы
406.605
Сообщения
465.025
Пользователи
84.383
Новый пользователь
wazice

Приложения форума для iOS и Android


У ркн там нет власти ;)
Приватные разговоры
Помощь Пользователи
    Вы не присоединились ни к одной комнате.