За последнюю неделю опубликовано 30 новых материалов.
Инструкция новичку Путеводитель по форуму Прокси для Telegram Показать подсказки , это бомба!

Скачать Lord Of The Lost – A Night To Remember (2015) DVDRip-AVC бесплатно через торрент

  • Поучаствуй (в качестве покупателя) в любых пяти совместных покупках (кроме завершённых и "Моментальных") и получи группу "Новичок" навсегда -> ссылка на раздел
  • Получай до 480 рублей за каждого приглашенного пользователя!
    представляем Вам очередное расширение партнерской программы, подробности описаны тут -> ссылка
  • 90% материалов доступно к скачиванию после простой регистрации!
    Если же ты хочешь скачивать материалы без требования оставлять отзывы то получи группу "Новичок", 10 способов повышения описаны тут -> ссылка
  • К сожалению количество битых ссылок растет и мы уже не можем их оперативно восстанавливать поэтому просим помощи у каждого нашего пользователя.
    С сегодняшнего дня, за каждую восстановленную ссылку мы заплатим Вам.
    Подробнее тут -> ссылка
  • Перенесем твои заслуги с другого ресурса!
    Мы понимаем как сложно прокачивать аккаунты на форумах, вроде раскачал аккаунт, а тут появляется ресурс в 100 раз круче но тоже с системой прокачки и снова качать аккаунт...
    Предлагаем вам перенести Ваши заслуги на другом подобном ресурсе к нам.
    Подробности описаны тут -> ссылка
  • Вы можете получать по 2.5% с каждой покупки и продажи на маркете! Подробности в теме Партнёрская программа

Torrent_Bot

Торрент-Бот
Бот форума
4 Окт 2016
93
160
20



Название группы: Lord Of The Lost
Название концерта: A Night To Remember
Год выхода: 2015
Жанр: Gothic Metal, Industrial Metal

О фильме: Выступление немецкой рок-группы Lord Of The Lost с программой "A Night To Remember" 4 декабря 2015 года в Гамбурге.

Треклист
01. Prelude To The Lost
02. Lost In A Heartbeat
03. Prison
04. Till Death Us Do Part
05. Porcelain
06. This Life Divided
07. Go To Hell
08. So Good It Hurts
09. See You Soon
10. Afterlife
11. Annabel Lee
12. Somewhere
13. Beyond Beautiful
14. The Sands Of Time
15. Lost In A Time Of War
16. October 29
17. Antagony
18. Dry The Rain
19. Sober
20. If Johnny Cash Was Here
21. Six Feet Underground
22. Participating musicians
23. Credo
24. End
Страна: Германия
Продолжительность: 01:40:56
Перевод: Не требуется

Файл
Кодек: H.264
Качество: DVDRip
Видео: AVC, 704x480 (16:9) @854:480, 25 fps, ~2100 kbps
Звук: AC3, 2 ch, 192 Kbps

Скриншоты
Медиаинфо
Общее
Уникальный идентификатор : 167452476732339546594113323396472033290 (0x7DFA2C8606723D7DE54B156121BCD00A)
Полное имя : D:ХранилищеВидеоLord Of The LostLord Of The Lost – A Night To Remember.mkv
Формат : Matroska
Версия формата : Version 4
Размер файла : 1,62 Гбайт
Продолжительность : 1 ч. 41 м.
Общий поток : 2292 Кбит/сек
Дата кодирования : UTC 2020-05-26 06:02:15
Программа кодирования : mkvmerge v43.0.0 ('The Quartermaster') 64-bit
Библиотека кодирования : libebml v1.3.10 + libmatroska v1.5.2
Обложка : Yes
Attachments : cover.jpg

Видео
Идентификатор : 1
Формат : AVC
Формат/Информация : Advanced Video Codec
Профиль формата : [email protected]
Настройки формата : CABAC / 12 Ref Frames
Параметр CABAC формата : Да
Параметр RefFrames формата : 12 кадров
Идентификатор кодека : V_MPEG4/ISO/AVC
Продолжительность : 1 ч. 40 м.
Битрейт : 2100 Кбит/сек
Ширина : 704 пикселя
Высота : 480 пикселей
Соотношение сторон : 16:9
Соотношение сторон в оригинале : 16:9
Режим частоты кадров : Постоянный
Частота кадров : 25,000 кадров/сек
Цветовое пространство : YUV
Субдискретизация насыщенности : 4:2:0
Битовая глубина : 8 бит
Тип развёртки : Прогрессивная
Бит/(Пиксели*Кадры) : 0.249
Размер потока : 1,48 Гбайт (92%)
Библиотека кодирования : x264 core 160 r3000 33f9e14
Настройки программы : cabac=1 / ref=12 / deblock=1:-3:-3 / analyse=0x3:0x133 / me=esa / subme=11 / psy=1 / psy_rd=1.00:0.00 / mixed_ref=1 / me_range=32 / chroma_me=1 / trellis=2 / 8x8dct=1 / cqm=0 / deadzone=21,11 / fast_pskip=0 / chroma_qp_offset=-2 / threads=15 / lookahead_threads=3 / sliced_threads=0 / nr=0 / decimate=1 / interlaced=0 / bluray_compat=0 / constrained_intra=0 / bframes=16 / b_pyramid=2 / b_adapt=2 / b_bias=0 / direct=3 / weightb=1 / open_gop=0 / weightp=2 / keyint=250 / keyint_min=25 / scenecut=40 / intra_refresh=0 / rc_lookahead=250 / rc=2pass / mbtree=1 / bitrate=2100 / ratetol=1.0 / qcomp=0.60 / qpmin=0 / qpmax=69 / qpstep=4 / cplxblur=20.0 / qblur=0.5 / vbv_maxrate=17500 / vbv_bufsize=17500 / nal_hrd=none / filler=0 / ip_ratio=1.40 / aq=1:1.00
Default : Да
Forced : Нет

Аудио
Идентификатор : 2
Формат : AC-3
Формат/Информация : Audio Coding 3
Коммерческое название : Dolby Digital
Идентификатор кодека : A_AC3
Продолжительность : 1 ч. 41 м.
Вид битрейта : Постоянный
Битрейт : 192 Кбит/сек
Каналы : 2 канала
ChannelLayout : L R
Частота : 48,0 КГц
Частота кадров : 31,250 кадров/сек (1536 SPF)
Метод сжатия : С потерями
Размер потока : 139 Мбайт (8%)
Default : Да
Forced : Нет

Меню
00:00:00.000 : de:01. Prelude To The Lost
00:01:36.500 : en:02. Lost In A Heartbeat
00:06:42.000 : en:03. Prison
00:11:04.500 : en:04. Till Death Us Do Part
00:14:30.000 : en:05. Porcelain
00:19:48.000 : en:06. This Life Divided
00:23:44.500 : en:07. Go To Hell
00:28:10.500 : en:08. So Good It Hurts
00:32:46.000 : en:09. See You Soon
00:37:44.000 : en:10. Afterlife
00:41:41.000 : en:11. Annabel Lee
00:44:56.000 : en:12. Somewhere
00:48:36.000 : en:13. Beyond Beautiful
00:53:25.500 : en:14. The Sands Of Time
00:57:27.000 : en:15. Lost In A Time Of War
01:04:01.500 : en:16. October 29
01:07:45.000 : en:17. Antagony
01:13:17.500 : en:18. Dry The Rain
01:17:06.500 : en:19. Sober
01:22:46.500 : en:20. If Johnny Cash Was Here
01:26:48.500 : en:21. Six Feet Underground
01:32:18.500 : de:22. Participating musicians
01:35:20.000 : en:23. Credo
01:39:49.000 : :24. End
Релиз от:
-
 

Вложения

  • 24,5 KB Просмотры: 0
    Личеров 0
    Сидеров 0
    Файлов 1
    Объем 1,6 GB

Привет!

Мы группа людей которые решили помочь другим в решении их проблем, а так же пользователям с поиском самых свежих и качественных инфопродуктов. За 4 с небольшим месяца мы создали этот форум на который заходят ежедневно тысячи человек и посещаемость постоянно растёт. Мы создали панель лицензирования для защиты PHP скриптов от воровства и SEO панель для мониторинга наших сайтов и выбора верной стратегии их развития. Мы надеемся что то что мы создали пригодится Вам и возможно Вы поможете нам развиваться и совершенствоваться вместе с Вами.

Статистика форума

Темы
406.605
Сообщения
465.027
Пользователи
84.387
Новый пользователь
Сергей1672021

Приложения форума для iOS и Android


У ркн там нет власти ;)
Приватные разговоры
Помощь Пользователи
    Вы не присоединились ни к одной комнате.