За последнюю неделю опубликовано 47 новых материалов.
Инструкция новичку Путеводитель по форуму Прокси для Telegram Показать подсказки , это бомба!

Скачать Лорд Дракон / Lung siu yeh / Dragon Lord (1981) BDRip-AVC от SuperMin | Расширенная версия | P2 бесплатно через торрент

  • Поучаствуй (в качестве покупателя) в любых пяти совместных покупках (кроме завершённых и "Моментальных") и получи группу "Новичок" навсегда -> ссылка на раздел
  • Получай до 480 рублей за каждого приглашенного пользователя!
    представляем Вам очередное расширение партнерской программы, подробности описаны тут -> ссылка
  • 90% материалов доступно к скачиванию после простой регистрации!
    Если же ты хочешь скачивать материалы без требования оставлять отзывы то получи группу "Новичок", 10 способов повышения описаны тут -> ссылка
  • К сожалению количество битых ссылок растет и мы уже не можем их оперативно восстанавливать поэтому просим помощи у каждого нашего пользователя.
    С сегодняшнего дня, за каждую восстановленную ссылку мы заплатим Вам.
    Подробнее тут -> ссылка
  • Перенесем твои заслуги с другого ресурса!
    Мы понимаем как сложно прокачивать аккаунты на форумах, вроде раскачал аккаунт, а тут появляется ресурс в 100 раз круче но тоже с системой прокачки и снова качать аккаунт...
    Предлагаем вам перенести Ваши заслуги на другом подобном ресурсе к нам.
    Подробности описаны тут -> ссылка
  • Вы можете получать по 2.5% с каждой покупки и продажи на маркете! Подробности в теме Партнёрская программа
Если Вы не хотите скачивать, Вы всегда можетепосмотретьонлайн, просто нажмите кнопку ниже :

Открыть плеер

Torrent_Bot

Торрент-Бот
Бот форума
4 Окт 2016
93
160
20



Информация о фильме
Название: Лорд Дракон
Оригинальное название: Lung siu yeh / Dragon Lord
Год выпуска: 1981
Жанр:боевик, комедия, спорт
Режиссер: Джеки Чан
В ролях: Джеки Чан, Уай-Ман Чан, Пол Чанг, Хонг-Йп Чэн, Ва Чунг, Кэм Кларк, Фанг Фенг, Фунг Харк-Он, Джессика Ги



Лунгшан - сонный провинциальный городок на юге Китая. Ничего, кроме ветхого «культурного наследия» здесь нет. Два закадычных друга случайно становятся свидетелями криминальной разборки.




Страна: Гонконг
Студия: Authority Films, Golden Harvest Company Ltd.
Продолжительность: 01:43:08
Перевод: Профессиональный (двухголосый закадровый) НТВ+

Файл
Кодек: H.264
Качество: BDRip-AVC
Видео: 1024x428 (2.40:1), 2889 kbps, 23.976 fps
Звук: Русский (AC3, 2ch, 192 Кбит/с)
Субтитры: Нет



MI
General
Unique ID : 335207102284132857019169284241053762156 (0xFC2E8A224F5A6B3F5302324E6420C26C)
Complete name : F:ФИЛЬМЫРУТОРЛорд Дракон (Расширенная).BDRip-AVC.mkv
Format : Matroska
Format version : Version 4
File size : 2.22 GiB
Duration : 1 h 43 min
Overall bit rate : 3 083 kb/s
Movie name : Лорд Дракон / Lung siu yeh / Dragon Lord (1981) (Расширенная) - #LORDKILL#
Encoded date : UTC 2020-09-01 12:54:13
Writing application : mkvmerge v32.0.0 ('Astral Progressions') 64-bit
Writing library : libebml v1.3.7 + libmatroska v1.5.0

Video
ID : 1
Format : AVC
Format/Info : Advanced Video Codec
Format profile : [email protected]
Format settings : CABAC / 14 Ref Frames
Format settings, CABAC : Yes
Format settings, Reference : 14 frames
Codec ID : V_MPEG4/ISO/AVC
Duration : 1 h 43 min
Bit rate : 2 889 kb/s
Width : 1 024 pixels
Height : 428 pixels
Display aspect ratio : 2.40:1
Frame rate mode : Constant
Frame rate : 23.976 (24000/1001) FPS
Color space : YUV
Chroma subsampling : 4:2:0
Bit depth : 8 bits
Scan type : Progressive
Bits/(Pixel*Frame) : 0.275
Stream size : 2.08 GiB (94%)
Writing library : x264 core 159 r2991 1771b55
Encoding settings : cabac=1 / ref=14 / deblock=1:-2:-2 / analyse=0x3:0x113 / me=umh / subme=10 / psy=1 / psy_rd=1.00:0.20 / mixed_ref=1 / me_range=32 / chroma_me=1 / trellis=2 / 8x8dct=1 / cqm=0 / deadzone=21,11 / fast_pskip=0 / chroma_qp_offset=-3 / threads=12 / lookahead_threads=2 / sliced_threads=0 / nr=0 / decimate=1 / interlaced=0 / bluray_compat=0 / constrained_intra=0 / bframes=9 / b_pyramid=2 / b_adapt=2 / b_bias=0 / direct=1 / weightb=1 / open_gop=0 / weightp=2 / keyint=240 / keyint_min=23 / scenecut=40 / intra_refresh=0 / rc=crf / mbtree=0 / crf=19.0 / qcomp=0.60 / qpmin=0 / qpmax=69 / qpstep=4 / ip_ratio=1.40 / pb_ratio=1.30 / aq=1:1.00
Default : Yes
Forced : No

Audio
ID : 2
Format : AC-3
Format/Info : Audio Coding 3
Commercial name : Dolby Digital
Codec ID : A_AC3
Duration : 1 h 43 min
Bit rate mode : Constant
Bit rate : 192 kb/s
Channel(s) : 2 channels
Channel layout : L R
Sampling rate : 48.0 kHz
Frame rate : 31.250 FPS (1536 SPF)
Compression mode : Lossy
Stream size : 142 MiB (6%)
Title : DVO (НТВ+)
Language : Russian
Service kind : Complete Main
Default : Yes
Forced : No

Menu
00:00:00.000 : en:Глава 01
00:05:28.870 : en:Глава 02
00:13:00.237 : en:Глава 03
00:18:37.825 : en:Глава 04
00:27:24.684 : en:Глава 05
00:35:56.195 : en:Глава 06
00:45:41.780 : en:Глава 07
00:53:33.168 : en:Глава 08
01:01:28.643 : en:Глава 09
01:09:51.604 : en:Глава 10
01:20:10.347 : en:Глава 11
01:31:52.507 : en:Глава 12
Скриншоты
 

Вложения

  • 12,4 KB Просмотры: 0
    Личеров 0
    Сидеров 0
    Файлов 1
    Объем 2,2 GB

Привет!

Мы группа людей которые решили помочь другим в решении их проблем, а так же пользователям с поиском самых свежих и качественных инфопродуктов. За 4 с небольшим месяца мы создали этот форум на который заходят ежедневно тысячи человек и посещаемость постоянно растёт. Мы создали панель лицензирования для защиты PHP скриптов от воровства и SEO панель для мониторинга наших сайтов и выбора верной стратегии их развития. Мы надеемся что то что мы создали пригодится Вам и возможно Вы поможете нам развиваться и совершенствоваться вместе с Вами.

Статистика форума

Темы
406.640
Сообщения
465.115
Пользователи
84.582
Новый пользователь
mladshiy

Приложения форума для iOS и Android


У ркн там нет власти ;)
Приватные разговоры
Помощь Пользователи
    Вы не присоединились ни к одной комнате.