За последнюю неделю опубликовано 28 новых материалов.
Инструкция новичку Путеводитель по форуму Прокси для Telegram Показать подсказки , это бомба!

Скачать Лондон / London (2005) WEB-DLRip-AVC | P, P2 | Open Matte бесплатно через торрент

  • Поучаствуй (в качестве покупателя) в любых пяти совместных покупках (кроме завершённых и "Моментальных") и получи группу "Новичок" навсегда -> ссылка на раздел
  • Получай до 480 рублей за каждого приглашенного пользователя!
    представляем Вам очередное расширение партнерской программы, подробности описаны тут -> ссылка
  • 90% материалов доступно к скачиванию после простой регистрации!
    Если же ты хочешь скачивать материалы без требования оставлять отзывы то получи группу "Новичок", 10 способов повышения описаны тут -> ссылка
  • К сожалению количество битых ссылок растет и мы уже не можем их оперативно восстанавливать поэтому просим помощи у каждого нашего пользователя.
    С сегодняшнего дня, за каждую восстановленную ссылку мы заплатим Вам.
    Подробнее тут -> ссылка
  • Перенесем твои заслуги с другого ресурса!
    Мы понимаем как сложно прокачивать аккаунты на форумах, вроде раскачал аккаунт, а тут появляется ресурс в 100 раз круче но тоже с системой прокачки и снова качать аккаунт...
    Предлагаем вам перенести Ваши заслуги на другом подобном ресурсе к нам.
    Подробности описаны тут -> ссылка
  • Вы можете получать по 2.5% с каждой покупки и продажи на маркете! Подробности в теме Партнёрская программа
Если Вы не хотите скачивать, Вы всегда можетепосмотретьонлайн, просто нажмите кнопку ниже :

Открыть плеер

Torrent_Bot

Торрент-Бот
Бот форума
4 Окт 2016
93
160
20



Информация о фильме
Название: Лондон
Оригинальное название: London
Год выхода: 2005
Жанр: драма, мелодрама
Режиссер: Хантер Ричардс
В ролях: Крис Эванс, Джессика Бил, Джой Брайант, Джейсон Стэтхэм, Келли Гарнер, Айла Фишер, Луис С.К., Джефф Вульф, Дейн Кук, Лина Эско, Паула Паттон, Кэт Деннингс, Джульетт Маркиз

О фильме:
Бросившись в пучину страстного, бурного романа с девушкой по имени Лондон, Сид верил, что эта музыка сфер будет вечной, но ошибся. Однажды они оба поняли, что чувства исчерпали себя, и Лондон ушла из жизни героя. Но девушка ушла, а боль осталась. Пытаясь заглушить муки разбитого сердца, Сид пускается во все тяжкие, глуша себя виски и наркотиками. Тщетно!
Поняв, что его жизнь бессмысленна без любимой, герой решает во что бы то ни стало увидеть Лондон и либо уговорить её вернуться, либо умереть. Но у него будет всего одна попытка, если он не успеет сделать это сегодня, он потеряет эту девушку окончательно: завтра Лондон навсегда уезжает из города.



Страна: Великобритания, США
Выпущено: Destination Films, LHR Productions Inc., National Film and Television School (NFTS)
Продолжительность: 01:32:19
Перевод: Профессиональный (многоголосый закадровый), профессиональный (двухголосый закадровый)
Субтитры: Английские

Файл
Формат: Matroska
Качество: WEB-DLRip-AVC | Open Matte
Видео: 1024x576 (16x9) at 23.976 fps, [email protected], ~1576 kbps
Аудио #1: AC3, 2 ch, 192 Kbps - Русский (MVO Первый канал)
Аудио #2: AC3, 6 ch, 448 Kbps - Русский (DVO R5)
Формат субтитров: softsub (SRT)

***Релиз от:-=DoMiNo=-

M/I
x264 [info]: frame I:830 Avg QP:14.46 size: 49993
x264 [info]: frame P:32621 Avg QP:15.93 size: 17411
x264 [info]: frame B:99365 Avg QP:18.26 size: 4849

General
Format : Matroska
Format version : Version 4
File size : 1.43 GiB
Duration : 1 h 32 min
Overall bit rate : 2 216 kb/s
Movie name : Лондон.(2005).WEB-DLRip-AVC.O.M.[-=DoMiNo=-]
Encoded date : UTC 2020-07-21 11:04:59
Writing application : mkvmerge v48.0.0 ('Fortress Around Your Heart') 64-bit
Writing library : libebml v1.4.0 + libmatroska v1.6.0
Cover : Yes
Attachments : Cover.jpg / Cover 2.jpg

Video
ID : 1
Format : AVC
Format/Info : Advanced Video Codec
Format profile : [email protected]
Format settings : CABAC / 10 Ref Frames
Format settings, CABAC : Yes
Format settings, Reference : 10 frames
Codec ID : V_MPEG4/ISO/AVC
Duration : 1 h 32 min
Bit rate : 1 576 kb/s
Width : 1 024 pixels
Height : 576 pixels
Display aspect ratio : 16:9
Frame rate mode : Constant
Frame rate : 23.976 (24000/1001) FPS
Color space : YUV
Chroma subsampling : 4:2:0
Bit depth : 8 bits
Scan type : Progressive
Bits/(Pixel*Frame) : 0.111
Stream size : 1.02 GiB (71%)
Title : -=DoMiNo=- | Open Matte
Writing library : x264 core 161 r3018 db0d417
Encoding settings : cabac=1 / ref=10 / deblock=1:-3:-3 / analyse=0x3:0x133 / me=umh / subme=10 / psy=1 / psy_rd=1.00:0.20 / mixed_ref=1 / me_range=32 / chroma_me=1 / trellis=2 / 8x8dct=1 / cqm=0 / deadzone=21,11 / fast_pskip=0 / chroma_qp_offset=-3 / threads=6 / lookahead_threads=1 / sliced_threads=0 / nr=0 / decimate=1 / interlaced=0 / bluray_compat=0 / constrained_intra=0 / bframes=10 / b_pyramid=2 / b_adapt=2 / b_bias=0 / direct=1 / weightb=1 / open_gop=0 / weightp=2 / keyint=250 / keyint_min=23 / scenecut=40 / intra_refresh=0 / rc_lookahead=60 / rc=crf / mbtree=0 / crf=19.0 / qcomp=0.60 / qpmin=0 / qpmax=69 / qpstep=4 / vbv_maxrate=50000 / vbv_bufsize=62500 / crf_max=0.0 / nal_hrd=none / filler=0 / ip_ratio=1.40 / pb_ratio=1.30 / aq=1:1.00
Language : English
Default : Yes
Forced : No
Color range : Limited
Color primaries : BT.709
Transfer characteristics : BT.709
Matrix coefficients : BT.709

Audio #1
ID : 2
Format : AC-3
Format/Info : Audio Coding 3
Commercial name : Dolby Digital
Codec ID : A_AC3
Duration : 1 h 32 min
Bit rate mode : Constant
Bit rate : 192 kb/s
Channel(s) : 2 channels
Channel layout : L R
Sampling rate : 48.0 kHz
Frame rate : 31.250 FPS (1536 SPF)
Compression mode : Lossy
Stream size : 126 MiB (9%)
Title : MVO Первый канал
Language : Russian
Service kind : Complete Main
Default : Yes
Forced : No

Audio #2
ID : 3
Format : AC-3
Format/Info : Audio Coding 3
Commercial name : Dolby Digital
Codec ID : A_AC3
Duration : 1 h 32 min
Bit rate mode : Constant
Bit rate : 448 kb/s
Channel(s) : 6 channels
Channel layout : L R C LFE Ls Rs
Sampling rate : 48.0 kHz
Frame rate : 31.250 FPS (1536 SPF)
Compression mode : Lossy
Stream size : 295 MiB (20%)
Title : DVO R5
Language : Russian
Service kind : Complete Main
Default : No
Forced : No

Text
ID : 4
Format : UTF-8
Codec ID : S_TEXT/UTF8
Codec ID/Info : UTF-8 Plain Text
Duration : 1 h 24 min
Bit rate : 87 b/s
Count of elements : 1292
Stream size : 54.5 KiB (0%)
Language : English
Default : No
Forced : No

Menu
00:00:00.000 : en:1
00:05:11.000 : en:2
00:11:47.000 : en:3
00:18:01.000 : en:4
00:24:15.000 : en:5
00:30:59.000 : en:6
00:36:59.000 : en:7
00:41:27.000 : en:8
00:46:06.000 : en:9
00:52:11.000 : en:10
00:55:56.000 : en:11
01:02:05.000 : en:12
01:11:33.000 : en:13
01:17:05.000 : en:14
01:22:25.000 : en:15
01:26:55.000 : en:16
Примечание & Сравнения:
Open Matte-версия фильма имеет большее наполнение кадра

[URL="http://www.framecompare.com/image-compare/screenshotcomparison/9F0EFNNU" target="_blank">***Сравнения => WEB-DL 2,35:1 vs WEB-DL Open Matte
Скриншоты
 

Вложения

  • 58,3 KB Просмотры: 0
    Личеров 0
    Сидеров 0
    Файлов 1
    Объем 1,4 GB

Привет!

Мы группа людей которые решили помочь другим в решении их проблем, а так же пользователям с поиском самых свежих и качественных инфопродуктов. За 4 с небольшим месяца мы создали этот форум на который заходят ежедневно тысячи человек и посещаемость постоянно растёт. Мы создали панель лицензирования для защиты PHP скриптов от воровства и SEO панель для мониторинга наших сайтов и выбора верной стратегии их развития. Мы надеемся что то что мы создали пригодится Вам и возможно Вы поможете нам развиваться и совершенствоваться вместе с Вами.

Статистика форума

Темы
406.613
Сообщения
465.071
Пользователи
84.481
Новый пользователь
Огненная Катя

Приложения форума для iOS и Android


У ркн там нет власти ;)
Приватные разговоры
Помощь Пользователи
    Вы не присоединились ни к одной комнате.