За последнюю неделю опубликовано 0 новых материалов.
Инструкция новичку Путеводитель по форуму Прокси для Telegram Показать подсказки , это бомба!

Скачать Любовник на день / L'amant d'un jour (2017) WEBRip 720p | GreenРай Studio бесплатно через торрент

  • Поучаствуй (в качестве покупателя) в любых пяти совместных покупках (кроме завершённых и "Моментальных") и получи группу "Новичок" навсегда -> ссылка на раздел
  • Получай до 480 рублей за каждого приглашенного пользователя!
    представляем Вам очередное расширение партнерской программы, подробности описаны тут -> ссылка
  • 90% материалов доступно к скачиванию после простой регистрации!
    Если же ты хочешь скачивать материалы без требования оставлять отзывы то получи группу "Новичок", 10 способов повышения описаны тут -> ссылка
  • К сожалению количество битых ссылок растет и мы уже не можем их оперативно восстанавливать поэтому просим помощи у каждого нашего пользователя.
    С сегодняшнего дня, за каждую восстановленную ссылку мы заплатим Вам.
    Подробнее тут -> ссылка
  • Перенесем твои заслуги с другого ресурса!
    Мы понимаем как сложно прокачивать аккаунты на форумах, вроде раскачал аккаунт, а тут появляется ресурс в 100 раз круче но тоже с системой прокачки и снова качать аккаунт...
    Предлагаем вам перенести Ваши заслуги на другом подобном ресурсе к нам.
    Подробности описаны тут -> ссылка
  • Вы можете получать по 2.5% с каждой покупки и продажи на маркете! Подробности в теме Партнёрская программа
Если Вы не хотите скачивать, Вы всегда можетепосмотретьонлайн, просто нажмите кнопку ниже :

Открыть плеер

Torrent_Bot

Торрент-Бот
Бот форума
4 Окт 2016
79
196
20
Информация о фильме
Название: Любовник на день
Оригинальное название: L'amant d'un jour
Год выпуска: 2017
Жанр:Драма
Режиссер: Филипп Гаррель
В ролях: Эрик Каравака, Эстер Гаррель, Мишель Шаррель, Николас Бридет, Мари Сержант, Джастин Башле

О фильме:
Студентка Ариана — любовница профессора философии Жиля, ставшая инициатором этих отношений. Никто не знает об их романе, поэтому формально они представляют интерес и для других людей, пусть и не предпочитают говорить об этом открыто. Однажды в квартире Жиля появляется его дочь Жанна, разругавшаяся с парнем и теперь не знающая куда себя деть. Вроде все складывается хорошо, но Ариана постоянно засматривается на мужчин помоложе.

e0980de7e3c25dfdaf7355fbdfcd7eb1.gif
Страна: Франция
Студия: SBS Productions, Arte France Cinéma, Arte France
Продолжительность: 01:16:51
Перевод: Любительский многоголосый [GreenРай Studio]

Файл
Кодек: MKV
Качество: WEBRip 720p
Видео: 4000 Кбит/с, 1280x536, 23.976 fps
Звук: Русский (AC3, 2 ch, 384 Кбит/с)

Скриншоты
MediaInfo
General
Unique ID : 171698379823718068289777613293089979075 (0x812BE7B552D18505962BC592CBA3FAC3)
Complete name : L.amant.d.un.jour.2017.P.WEB-DL.720p.mkv
Format : Matroska
Format version : Version 4 / Version 2
File size : 2.29 GiB
Duration : 1 h 16 min
Overall bit rate mode : Constant
Overall bit rate : 4 294 kb/s
Encoded date : UTC 2018-03-01 13:37:29
Writing application : mkvmerge v6.5.0 ('Isn't she lovely') built on Oct 20 2013 12:50:05
Writing library : libebml v1.3.0 + libmatroska v1.4.1

Video
ID : 1
Format : AVC
Format/Info : Advanced Video Codec
Format profile : [email protected]
Format settings : CABAC / 3 Ref Frames
Format settings, CABAC : Yes
Format settings, ReFrames : 3 frames
Format settings, GOP : M=4, N=15
Codec ID : V_MPEG4/ISO/AVC
Duration : 1 h 16 min
Bit rate mode : Constant
Bit rate : 4 000 kb/s
Width : 1 280 pixels
Height : 536 pixels
Display aspect ratio : 2.40:1
Frame rate mode : Constant
Frame rate : 24.000 FPS
Standard : NTSC
Color space : YUV
Chroma subsampling : 4:2:0
Bit depth : 8 bits
Scan type : Progressive
Bits/(Pixel*Frame) : 0.243
Stream size : 2.04 GiB (89%)
Language : English
Default : Yes
Forced : No
Color range : Limited

Audio
ID : 2
Format : AC-3
Format/Info : Audio Coding 3
Codec ID : A_AC3
Duration : 1 h 16 min
Bit rate mode : Constant
Bit rate : 384 kb/s
Channel(s) : 2 channels
Channel positions : Front: L R
Sampling rate : 48.0 kHz
Frame rate : 31.250 FPS (1536 SPF)
Bit depth : 16 bits
Compression mode : Lossy
Stream size : 209 MiB (9%)
Service kind : Complete Main
Default : Yes
Forced : No

Внимание, имеется видео и аудио реклама от спонсора показа

Над релизом работали:
Состав дикторов Дмитрий Кучеренко, Анастасия Гайдаржи, Дмитрий Коляденко
Руководитель проекта и координатор: Евгений Овчаренко
Организатор и координатор: Никита Марков
Пиар менеджер студии: Гриша Чернозатонский
Техническая поддержка: Александр Методий


Релиз от:
 

Вложения

Привет!

Мы группа людей которые решили помочь другим в решении их проблем, а так же пользователям с поиском самых свежих и качественных инфопродуктов. За 4 с небольшим месяца мы создали этот форум на который заходят ежедневно тысячи человек и посещаемость постоянно растёт. Мы создали панель лицензирования для защиты PHP скриптов от воровства и SEO панель для мониторинга наших сайтов и выбора верной стратегии их развития. Мы надеемся что то что мы создали пригодится Вам и возможно Вы поможете нам развиваться и совершенствоваться вместе с Вами.

Статистика форума

Темы
414.370
Сообщения
475.396
Пользователи
96.561
Новый пользователь
starushka

Приложения форума для iOS и Android


У ркн там нет власти ;)
Приватные разговоры
Помощь Пользователи
    Вы не присоединились ни к одной комнате.