За последнюю неделю опубликовано 38 новых материалов.
Инструкция новичку Путеводитель по форуму Прокси для Telegram Показать подсказки , это бомба!

Скачать Любовь земная (1975) HDTVRip бесплатно через торрент

  • Поучаствуй (в качестве покупателя) в любых пяти совместных покупках (кроме завершённых и "Моментальных") и получи группу "Новичок" навсегда -> ссылка на раздел
  • Получай до 480 рублей за каждого приглашенного пользователя!
    представляем Вам очередное расширение партнерской программы, подробности описаны тут -> ссылка
  • 90% материалов доступно к скачиванию после простой регистрации!
    Если же ты хочешь скачивать материалы без требования оставлять отзывы то получи группу "Новичок", 10 способов повышения описаны тут -> ссылка
  • К сожалению количество битых ссылок растет и мы уже не можем их оперативно восстанавливать поэтому просим помощи у каждого нашего пользователя.
    С сегодняшнего дня, за каждую восстановленную ссылку мы заплатим Вам.
    Подробнее тут -> ссылка
  • Перенесем твои заслуги с другого ресурса!
    Мы понимаем как сложно прокачивать аккаунты на форумах, вроде раскачал аккаунт, а тут появляется ресурс в 100 раз круче но тоже с системой прокачки и снова качать аккаунт...
    Предлагаем вам перенести Ваши заслуги на другом подобном ресурсе к нам.
    Подробности описаны тут -> ссылка
  • Вы можете получать по 2.5% с каждой покупки и продажи на маркете! Подробности в теме Партнёрская программа
Если Вы не хотите скачивать, Вы всегда можетепосмотретьонлайн, просто нажмите кнопку ниже :

Открыть плеер

Torrent_Bot

Торрент-Бот
Бот форума
4 Окт 2016
93
160
20
Информация о фильме
Название: Любовь земная
Год выхода: 1975
Жанр: Мелодрама
Режиссер: Евгений Матвеев
В ролях: Евгений Матвеев, Валерия Заклунная, Зинаида Кириенко, Муза Крепкогорская, Александр Лебедев, Зоя Исаева, Николай Юдин, Валентина Клягина, Ольга Остроумова, Александр Потапов, Станислав Чекан, Владимир Самойлов (I), Юрий Яковлев, Ирина Скобцева, Вадим Спиридонов, Николай Бармин, Виктор Маркин (I), Владимир Плотников, Юрий Мартынов, Анатолий Дегтярь, Александр Вигдоров, Владимир Гуляев, Виктор Хохряков, Дмитрий Орловский, Любовь Соколова, Роман Филиппов, Юрий Леонидов (II), Владимир Пицек, Валентина Ушакова, Валентин Брылеев

О фильме:
Председатель колхоза Захар Дерюгин, имея семью, полюбил Маню Поливанову. Маня рожает от него сына. Захара исключают из партии и снимают с должности председателя. Душа его этим уязвлена, но больше всего он страдает оттого, что Маня решила с ним расстаться и воспитывать сына самостоятельно. Но началась война, и Захар уходит на фронт…



Страна: СССР
Студия: Мосфильм
Продолжительность: 01:29:28
Перевод: Не требуется

Файл
Качество: HDTVRip
Формат: AVI
Кодек: XviD
Видео: 720x304 (2,35:1), 25 fps, XviD ~ 1991 kbps avg, 0.364 bit/pixel
Аудио: AC3, 48 kHz, 2 ch, ~192.00 kbps avg | русский
Субтитры: Отсутствуют
Семпл

Инфо-файл
Общее
Полное имя : Lubov.zemnaya.1975.HDTVRip.avi
Формат : AVI
Формат/Информация : Audio Video Interleave
Размер файла : 1,37 Гбайт
Продолжительность : 1 ч. 29 м.
Общий поток : 2192 Кбит/сек
Программа кодирования : VirtualDubMod 1.5.10.3 (build 2550/release)
Библиотека кодирования : VirtualDubMod build 2550/release

Видео
Идентификатор : 0
Формат : MPEG-4 Visual
Профиль формата : Advanced [email protected]
Параметр BVOP формата : 2
Параметр QPel формата : Нет
Параметр GMC формата : Без точки перехода
Параметр матрицы формата : Выборочная
Идентификатор кодека : XVID
Идентификатор кодека/Подсказка : XviD
Продолжительность : 1 ч. 29 м.
Битрейт : 1991 Кбит/сек
Ширина : 720 пикселей
Высота : 304 пикселя
Соотношение сторон : 2,35:1
Частота кадров : 25,000 кадров/сек
Цветовое пространство : YUV
Субдискретизация насыщенности : 4:2:0
Битовая глубина : 8 бит
Тип развёртки : Прогрессивная
Метод сжатия : С потерями
Бит/(Пиксели*Кадры) : 0.364
Размер потока : 1,24 Гбайт (91%)
Библиотека кодирования : XviD 73

Аудио
Идентификатор : 1
Формат : AC-3
Формат/Информация : Audio Coding 3
Расширение режима : CM (complete main)
Параметр Endianness формата : Big
Идентификатор кодека : 2000
Продолжительность : 1 ч. 29 м.
Вид битрейта : Постоянный
Битрейт : 192 Кбит/сек
Каналы : 2 канала
Расположение каналов : Front: L R
Частота : 48,0 КГц
Метод сжатия : С потерями
Размер потока : 123 Мбайт (9%)
Выравнивание : Разделение по промежуткам
Продолжительность промежутка : 40 мс. (1,00 видеокадр)
Время предзагрузки промежутка : 500 мс.
Скриншоты
 

Вложения

  • 14,7 KB Просмотры: 1
    Личеров 0
    Сидеров 0
    Файлов 1
    Объем 1,4 GB

Привет!

Мы группа людей которые решили помочь другим в решении их проблем, а так же пользователям с поиском самых свежих и качественных инфопродуктов. За 4 с небольшим месяца мы создали этот форум на который заходят ежедневно тысячи человек и посещаемость постоянно растёт. Мы создали панель лицензирования для защиты PHP скриптов от воровства и SEO панель для мониторинга наших сайтов и выбора верной стратегии их развития. Мы надеемся что то что мы создали пригодится Вам и возможно Вы поможете нам развиваться и совершенствоваться вместе с Вами.

Статистика форума

Темы
406.605
Сообщения
465.006
Пользователи
84.312
Новый пользователь
nastasya23

Приложения форума для iOS и Android


У ркн там нет власти ;)
Приватные разговоры
Помощь Пользователи
    Вы не присоединились ни к одной комнате.