За последнюю неделю опубликовано 82 новых материалов.
Инструкция новичку Путеводитель по форуму Прокси для Telegram Показать подсказки , это бомба!

Скачать Любовь под прикрытием (2010) DVDRip от ivandubskoj | Лицензия бесплатно через торрент

  • Поучаствуй (в качестве покупателя) в любых пяти совместных покупках (кроме завершённых и "Моментальных") и получи группу "Новичок" навсегда -> ссылка на раздел
  • Получай до 480 рублей за каждого приглашенного пользователя!
    представляем Вам очередное расширение партнерской программы, подробности описаны тут -> ссылка
  • 90% материалов доступно к скачиванию после простой регистрации!
    Если же ты хочешь скачивать материалы без требования оставлять отзывы то получи группу "Новичок", 10 способов повышения описаны тут -> ссылка
  • К сожалению количество битых ссылок растет и мы уже не можем их оперативно восстанавливать поэтому просим помощи у каждого нашего пользователя.
    С сегодняшнего дня, за каждую восстановленную ссылку мы заплатим Вам.
    Подробнее тут -> ссылка
  • Перенесем твои заслуги с другого ресурса!
    Мы понимаем как сложно прокачивать аккаунты на форумах, вроде раскачал аккаунт, а тут появляется ресурс в 100 раз круче но тоже с системой прокачки и снова качать аккаунт...
    Предлагаем вам перенести Ваши заслуги на другом подобном ресурсе к нам.
    Подробности описаны тут -> ссылка
  • Вы можете получать по 2.5% с каждой покупки и продажи на маркете! Подробности в теме Партнёрская программа
Если Вы не хотите скачивать, Вы всегда можетепосмотретьонлайн, просто нажмите кнопку ниже :

Открыть плеер

Torrent_Bot

Торрент-Бот
Бот форума
4 Окт 2016
104
152
20
Информация о фильме
Название: Любовь под прикрытием
Год выхода: 2010
Жанр: Мелодрама, криминал, комедия
Режиссёр: Александр Баранов
В ролях: Денис Никифоров, Ольга Красько, Павел Деревянко, Игорь Савочкин, Владимир Меньшов, Елена Дубровская, Михаил Богдасаров, Людмила Калмыкова, Екатерина Климова, Александр Робак, Владимир Русаков

О фильме: Судьба свела их в отделении милиции. Павел Угрюмов, только что освободившийся из тюрьмы, пришел вставать на учет. Молодая учительница Ксюша Веселова решила, наконец, написать заявление на соседа по коммуналке Костика, постоянно крадущего ее вещи. Последним его трофеем стала флэшка с очень важной информацией. Никогда ранее не имевшая дела с работниками правоохранительных органов, Ксюша приняла понуро сидящего субъекта за оперуполномоченного. А тот не стал убеждать в обратном сильно понравившуюся ему девушку и вызвался помочь…



Выпущено: Россия, Production Value
Продолжительность: 01:33:44
Перевод: Не требуется

Файл
Качество: DVDRip [Исходник DVD-9]
Видео: XviD, 975 Кбит/с, 640x384 (1.667), 25 кадр/с
Аудио: Русский, MP3, 48000 Гц, 128 Кбит/с, 2 канала (Стерео)



MediaInfo
General
Complete name : Lyubov.pod.prikrytiem.2010.DVDRip.745MB.avi
Format : AVI
Format/Info : Audio Video Interleave
File size : 746 MiB
Duration : 1h 33mn
Overall bit rate : 1 113 Kbps
Writing application : VirtualDubMod 1.5.10.3 (build 2550/release)
Writing library : VirtualDubMod build 2550/release
Copyright : rip by ivandubskoj

Video
ID : 0
Format : MPEG-4 Visual
Format profile : Advanced Simple@L5
Format settings, BVOP : 2
Format settings, QPel : No
Format settings, GMC : No warppoints
Format settings, Matrix : Custom
Codec ID : XVID
Codec ID/Hint : XviD
Duration : 1h 33mn
Bit rate : 975 Kbps
Width : 640 pixels
Height : 384 pixels
Display aspect ratio : 1.667
Frame rate : 25.000 fps
Color space : YUV
Chroma subsampling : 4:2:0
Bit depth : 8 bits
Scan type : Progressive
Compression mode : Lossy
Bits/(Pixel*Frame) : 0.159
Stream size : 654 MiB (88%)
Writing library : XviD 73

Audio
ID : 1
Format : MPEG Audio
Format version : Version 1
Format profile : Layer 3
Codec ID : 55
Codec ID/Hint : MP3
Duration : 1h 33mn
Bit rate mode : Constant
Bit rate : 128 Kbps
Channel(s) : 2 channels
Sampling rate : 48.0 KHz
Compression mode : Lossy
Stream size : 85.8 MiB (12%)
Alignment : Aligned on interleaves
Interleave, duration : 40 ms (1.00 video frame)
Interleave, preload duration : 504 ms
Writing library : LAME3.99r
Encoding settings : -m s -V 4 -q 0 -lowpass 17 -b 128
Скриншоты
Автор рипа - ivandubskoj
 

Вложения

  • 15,6 KB Просмотры: 0
    Личеров 0
    Сидеров 0
    Файлов 1
    Объем 745,9 MB

Привет!

Мы группа людей которые решили помочь другим в решении их проблем, а так же пользователям с поиском самых свежих и качественных инфопродуктов. За 4 с небольшим месяца мы создали этот форум на который заходят ежедневно тысячи человек и посещаемость постоянно растёт. Мы создали панель лицензирования для защиты PHP скриптов от воровства и SEO панель для мониторинга наших сайтов и выбора верной стратегии их развития. Мы надеемся что то что мы создали пригодится Вам и возможно Вы поможете нам развиваться и совершенствоваться вместе с Вами.

Статистика форума

Темы
404.540
Сообщения
461.434
Пользователи
80.065
Новый пользователь
Сагира

Приложения форума для iOS и Android


У ркн там нет власти ;)
Приватные разговоры
Помощь Пользователи
    Вы не присоединились ни к одной комнате.