За последнюю неделю опубликовано 35 новых материалов.
Инструкция новичку Путеводитель по форуму Прокси для Telegram Показать подсказки , это бомба!

Скачать Любовь без правил (2016) WEB-DLRip-AVC от OlLanDGroup | iTunes Russia бесплатно через торрент

  • Поучаствуй (в качестве покупателя) в любых пяти совместных покупках (кроме завершённых и "Моментальных") и получи группу "Новичок" навсегда -> ссылка на раздел
  • Получай до 480 рублей за каждого приглашенного пользователя!
    представляем Вам очередное расширение партнерской программы, подробности описаны тут -> ссылка
  • 90% материалов доступно к скачиванию после простой регистрации!
    Если же ты хочешь скачивать материалы без требования оставлять отзывы то получи группу "Новичок", 10 способов повышения описаны тут -> ссылка
  • К сожалению количество битых ссылок растет и мы уже не можем их оперативно восстанавливать поэтому просим помощи у каждого нашего пользователя.
    С сегодняшнего дня, за каждую восстановленную ссылку мы заплатим Вам.
    Подробнее тут -> ссылка
  • Перенесем твои заслуги с другого ресурса!
    Мы понимаем как сложно прокачивать аккаунты на форумах, вроде раскачал аккаунт, а тут появляется ресурс в 100 раз круче но тоже с системой прокачки и снова качать аккаунт...
    Предлагаем вам перенести Ваши заслуги на другом подобном ресурсе к нам.
    Подробности описаны тут -> ссылка
  • Вы можете получать по 2.5% с каждой покупки и продажи на маркете! Подробности в теме Партнёрская программа
Если Вы не хотите скачивать, Вы всегда можетепосмотретьонлайн, просто нажмите кнопку ниже :

Открыть плеер

Torrent_Bot

Торрент-Бот
Бот форума
4 Окт 2016
90
168
20
Информация о фильме

Оригинальное название: Любовь без правил
Год выпуска: 2016
Жанр:Комедия
Выпущено: Россия, Беларусьфильм, Каскад
Режиссер: Дмитрий Астрахан
В ролях: Виктор Васильев, Анна Горшкова, Олег Васильков, Ирина Погодина, Анна Назарова, Иван Щетко, Софья Синицына, Наталья Барановская, Людмила Баталова, Георгий Малявский


О фильме: В городе Зареченске жены часто отказывали мужьям. Когда же проблема накрыла и мэра города, Сергей Николаевич не стал терпеть и начал действовать. С родственником жены, местным олигархом, они решают перепрофилировать построенный на противоположном берегу реки санаторий в «Оздоровительный центр». Для чего бизнесмен приглашает из столицы специально обученный «медицинский персонал». И вот уже на другую сторону реки пришвартовывается катер с симпатичными, молодыми и очень профессиональными «медсестрами» и «санитарками». Вооружившись биноклями зареченские жены придирчиво рассматривают конкуренток. А что-же мужья? Надев парадные костюмы и галстуки они садятся в лодки и через несколько минут оказываются на другом берегу, среди молодых, красивых, покладистых и совсем не стервозных девушек. Другие правила или наоборот, любовь без правил?





Файл

Качество: WEB-DLRip (AVC)
Видео: MPEG-4 AVC, 2057 Кбит/с, 1024x428, 25 кадр/с
Аудио: AC3, 2 ch, 384 Кбит/с
Размер: 1.54 ГБ
Продолжительность: 01:30:02
Язык: Русский


Сохранены оригинальные чаптеры как на исходном WEB-DL.
Озвучивание - (iTunes Russia)


x264
x264 [info]: frame I:910 Avg QP:14.03 size: 75106
x264 [info]: frame P:35741 Avg QP:16.75 size: 22351
x264 [info]: frame B:98403 Avg QP:19.02 size: 5302
x264 [info]: consecutive B-frames: 2.1% 5.1% 5.3% 71.9% 5.8% 8.2% 0.5% 0.5% 0.1% 0.1% 0.4%
x264 [info]: mb I I16..4: 16.5% 31.9% 51.6%
x264 [info]: mb P I16..4: 2.0% 6.4% 5.3% P16..4: 30.2% 28.9% 16.9% 4.3% 0.6% skip: 5.4%
x264 [info]: mb B I16..4: 0.5% 1.1% 0.6% B16..8: 23.9% 18.1% 4.0% direct: 5.0% skip:46.8% L0:33.9% L1:41.8% BI:24.3%
x264 [info]: 8x8 transform intra:45.6% inter:33.6%
x264 [info]: direct mvs spatial:97.2% temporal:2.8%
x264 [info]: coded y,uvDC,uvAC intra: 83.1% 76.9% 56.7% inter: 21.7% 13.8% 7.6%
x264 [info]: i16 v,h,dc,p: 24% 19% 37% 20%
x264 [info]: i8 v,h,dc,ddl,ddr,vr,hd,vl,hu: 23% 22% 17% 4% 5% 7% 6% 7% 8%
x264 [info]: i4 v,h,dc,ddl,ddr,vr,hd,vl,hu: 24% 18% 23% 4% 7% 7% 6% 5% 6%
x264 [info]: i8c dc,h,v,p: 33% 30% 22% 14%
x264 [info]: Weighted P-Frames: Y:3.4% UV:1.3%
x264 [info]: ref P L0: 54.2% 11.3% 15.7% 5.2% 4.3% 2.8% 2.6% 1.3% 1.4% 1.2% 0.1% 0.0%
x264 [info]: ref B L0: 83.0% 8.7% 3.3% 1.7% 1.1% 0.9% 0.7% 0.4% 0.2%
x264 [info]: ref B L1: 96.3% 3.7%
x264 [info]: kb/s:2056.88

Инфо-файл
Общее
Уникальный идентификатор : 227772151715278863847819377536728857196 (0xAB5B521C947D861888C1ECA424E47A6C)
Полное имя : D:ЗагрузкиLjubov.Bez.Pravil.2016.x264.WEB-DLRip.(AVC).OlLanDGroup.mkv
Формат : Matroska
Версия формата : Version 2
Размер файла : 1,54 Гбайт
Продолжительность : 1 ч. 30 м.
Общий поток : 2443 Кбит/сек
Название фильма : Любовь без правил.2016.Rip by: ollan
Дата кодирования : UTC 2016-12-26 19:14:24
Программа кодирования : mkvmerge v5.6.0 ('Kenya Kane') built on May 27 2012 16:44:04
Библиотека кодирования : libebml v1.2.3 + libmatroska v1.3.0
Attachements : Cover - Ljubov.Bez.Pravil.png

Видео
Идентификатор : 1
Формат : AVC
Формат/Информация : Advanced Video Codec
Профиль формата : [email protected]
Параметр CABAC формата : Да
Параметр ReFrames формата : 10 кадров
Идентификатор кодека : V_MPEG4/ISO/AVC
Продолжительность : 1 ч. 30 м.
Битрейт : 2057 Кбит/сек
Ширина : 1024 пикселя
Высота : 428 пикселей
Соотношение сторон : 2,40:1
Режим частоты кадров : Постоянный
Частота кадров : 25,000 кадров/сек
Цветовое пространство : YUV
Субдискретизация насыщенности : 4:2:0
Битовая глубина : 8 бит
Тип развёртки : Прогрессивная
Бит/(Пиксели*Кадры) : 0.188
Размер потока : 1,26 Гбайт (82%)
Библиотека кодирования : x264 core 146 r2538 121396c
Настройки программы : cabac=1 / ref=10 / deblock=1:-2:-3 / analyse=0x3:0x133 / me=umh / subme=11 / psy=1 / psy_rd=0.00:0.09 / mixed_ref=1 / me_range=48 / chroma_me=1 / trellis=2 / 8x8dct=1 / cqm=0 / deadzone=21,11 / fast_pskip=0 / chroma_qp_offset=-1 / threads=12 / lookahead_threads=3 / sliced_threads=0 / nr=0 / decimate=0 / interlaced=0 / bluray_compat=0 / constrained_intra=0 / bframes=10 / b_pyramid=2 / b_adapt=2 / b_bias=0 / direct=3 / weightb=1 / open_gop=0 / weightp=2 / keyint=250 / keyint_min=25 / scenecut=40 / intra_refresh=0 / rc_lookahead=40 / rc=2pass / mbtree=0 / bitrate=2057 / ratetol=1.0 / qcomp=0.60 / qpmin=0 / qpmax=69 / qpstep=4 / cplxblur=20.0 / qblur=0.5 / vbv_maxrate=50000 / vbv_bufsize=62500 / nal_hrd=none / filler=0 / ip_ratio=1.40 / pb_ratio=1.30 / aq=1:1.00
Язык : Russian
Default : Да
Forced : Нет

Аудио
Идентификатор : 2
Формат : AC-3
Формат/Информация : Audio Coding 3
Расширение режима : CM (complete main)
Параметр Endianness формата : Big
Идентификатор кодека : A_AC3
Продолжительность : 1 ч. 30 м.
Вид битрейта : Постоянный
Битрейт : 384 Кбит/сек
Каналы : 2 канала
Расположение каналов : Front: L R
Частота : 48,0 КГц
Частота кадров : 31,250 кадров/сек (1536 spf)
Метод сжатия : С потерями
Размер потока : 247 Мбайт (16%)
Заголовок : iTunes Russia
Язык : Russian
Default : Да
Forced : Нет

Меню
00:00:00.000 : ru:Chapter 01
00:06:32.680 : ru:Chapter 02
00:13:28.280 : ru:Chapter 03
00:20:55.240 : ru:Chapter 04
00:29:03.960 : ru:Chapter 05
00:36:43.040 : ru:Chapter 06
00:45:01.000 : ru:Chapter 07
00:52:50.480 : ru:Chapter 08
01:01:55.960 : ru:Chapter 09
01:10:54.120 : ru:Chapter 10
01:19:16.720 : ru:Chapter 11

Скриншоты


 

Вложения

  • 16,4 KB Просмотры: 0
    Личеров 0
    Сидеров 0
    Файлов 1
    Объем 1,5 GB

Привет!

Мы группа людей которые решили помочь другим в решении их проблем, а так же пользователям с поиском самых свежих и качественных инфопродуктов. За 4 с небольшим месяца мы создали этот форум на который заходят ежедневно тысячи человек и посещаемость постоянно растёт. Мы создали панель лицензирования для защиты PHP скриптов от воровства и SEO панель для мониторинга наших сайтов и выбора верной стратегии их развития. Мы надеемся что то что мы создали пригодится Вам и возможно Вы поможете нам развиваться и совершенствоваться вместе с Вами.

Статистика форума

Темы
410.952
Сообщения
469.384
Пользователи
88.420
Новый пользователь
Grimoar

Приложения форума для iOS и Android


У ркн там нет власти ;)
Приватные разговоры
Помощь Пользователи
    Вы не присоединились ни к одной комнате.