За последнюю неделю опубликовано 47 новых материалов.
Инструкция новичку Путеводитель по форуму Прокси для Telegram Показать подсказки , это бомба!

Скачать Любовь (1991) DVDRip от New-Team бесплатно через торрент

  • Поучаствуй (в качестве покупателя) в любых пяти совместных покупках (кроме завершённых и "Моментальных") и получи группу "Новичок" навсегда -> ссылка на раздел
  • Получай до 480 рублей за каждого приглашенного пользователя!
    представляем Вам очередное расширение партнерской программы, подробности описаны тут -> ссылка
  • 90% материалов доступно к скачиванию после простой регистрации!
    Если же ты хочешь скачивать материалы без требования оставлять отзывы то получи группу "Новичок", 10 способов повышения описаны тут -> ссылка
  • К сожалению количество битых ссылок растет и мы уже не можем их оперативно восстанавливать поэтому просим помощи у каждого нашего пользователя.
    С сегодняшнего дня, за каждую восстановленную ссылку мы заплатим Вам.
    Подробнее тут -> ссылка
  • Перенесем твои заслуги с другого ресурса!
    Мы понимаем как сложно прокачивать аккаунты на форумах, вроде раскачал аккаунт, а тут появляется ресурс в 100 раз круче но тоже с системой прокачки и снова качать аккаунт...
    Предлагаем вам перенести Ваши заслуги на другом подобном ресурсе к нам.
    Подробности описаны тут -> ссылка
  • Вы можете получать по 2.5% с каждой покупки и продажи на маркете! Подробности в теме Партнёрская программа
Если Вы не хотите скачивать, Вы всегда можетепосмотретьонлайн, просто нажмите кнопку ниже :

Открыть плеер

Torrent_Bot

Торрент-Бот
Бот форума
4 Окт 2016
90
166
20
bfe2f9eb2da14e8000fde2452530e90d.png
Страна: СССР
Производство: Студия Горького, Зодиак
Жанр: мелодрама
Год выпуска: 1991
Продолжительность: 01:44:56

Перевод: не требуется
Оригинальная аудиодорожка: русский
Cубтитры: нет

Режиссер: Валерий Тодоровский

В ролях: Евгений Миронов, Наталья Петрова, Дмитрий Марьянов, Татьяна Скороходова, Наталья Вилькина, Вия Артмане, Лев Дуров, Раиса Рязанова, Инна (Фаина) Слободская, Анатолий Поползухин...

Описание:
Два друга-студента на вечеринке знакомятся с девушками. У первой пары есть и роскошная квартира для встреч, и видимое взаимопонимание, которое приводит к браку. Любовь основных героев осложнена не только разницей характеров и семейных укладов, но и вынужденным отъездом девушки в Израиль…


601fa461839bd045689d85ff6a645adc.gif89bd572c72f053c4016e69298f89755a.png


Исходник: DVD9 R5
Тип релиза: DVDRip
Контейнер: AVI

Видео: 704x512 (1,375:1), 25 fps, XviD ~ 1529 kbps avg, 0.170 bit/pixel
Аудио: 48 kHz, Dolby AC3 5.1, 448 kbps
MediaInfo
Общее
Полное имя : Ljubov'.1991.DVDRip_[Youtracker]_by_AVP Studio.avi
Формат : AVI
Формат/Информация : Audio Video Interleave
Размер файла : 1,46 Гбайт
Продолжительность : 1 ч. 44 м.
Общий поток : 1987 Кбит/сек
Программа кодирования : VirtualDubMod 1.5.10.3 | www.virtualdub-fr.org || (build 2550/release)
Библиотека кодирования : VirtualDubMod build 2550/release

Видео
Идентификатор : 0
Формат : MPEG-4 Visual
Профиль формата : Advanced [email protected]
Параметр BVOP формата : 1
Параметр QPel формата : Нет
Параметр GMC формата : Без точки перехода
Параметр матрицы формата : Выборочная
Идентификатор кодека : XVID
Идентификатор кодека/Подсказка : XviD
Продолжительность : 1 ч. 44 м.
Битрейт : 1529 Кбит/сек
Ширина : 704 пикселя
Высота : 512 пикселей
Соотношение сторон : 1,375
Частота кадров : 25,000 кадров/сек
Цветовое пространство : YUV
Субдискретизация насыщенности : 4:2:0
Битовая глубина : 8 бит
Тип развёртки : Прогрессивная
Метод сжатия : С потерями
Бит/(Пиксели*Кадры) : 0.170
Размер потока : 1,12 Гбайт (77%)
Библиотека кодирования : XviD 65

Аудио
Идентификатор : 1
Формат : AC-3
Формат/Информация : Audio Coding 3
Расширение режима : CM (complete main)
Идентификатор кодека : 2000
Продолжительность : 1 ч. 44 м.
Вид битрейта : Постоянный
Битрейт : 448 Кбит/сек
Каналы : 6 каналов
Расположение каналов : Front: L C R, Side: L R, LFE
Частота : 48,0 КГц
Битовая глубина : 16 бит
Метод сжатия : С потерями
Размер потока : 336 Мбайт (23%)
Выравнивание : Разделение по промежуткам
Продолжительность промежутка : 40 мс. (1,00 видеокадр)
Время предзагрузки промежутка : 500 мс
Скриншоты
1c65ea997d9937acd12b3f80e21def6d.jpeg5b7d5bef910b8d43cda6007aa3816423.jpege5e052066bf24116ffbaff97e23dfdb3.jpeg3a2fea00d9ac9f90fd8f2235fe85353a.jpegd883d9f33d905650c7745af232fe26f4.jpeg
Награды
Приз Европейской ассоциации художественного кино,
Приз экуменистического жюри,
Приз зрителей на Международном Каннском фестивале (Франция, 1992г.);
«Приз Мира» - Московского кинофестиваля в Чикаго, США (1992г.);
Приз режиссёру «За лучшую работу с актерами» Кинофестиваля «Созвездие» в г. Смоленск.

За работу в фильме актёр Евгений Миронов награждён:

Премией за лучшую роль на Кинофестивале «Созвездие-92»;
Премией за лучшую роль на Кинофестивале «Кинотавр-92»;
«Гран-при» и специальным призом кинокритики на Международном кинофестивале «Звезды завтрашнего дня» в Женеве;
Признан критиками лучшим актером 1992 года.

За работу в фильме актриса Наталья Петрова награждена:

Призом Кинофестиваля в Монпелье (Франция) в номинации «Лучшая женская роль» (1992г.)
Сравнения
 

Вложения

Привет!

Мы группа людей которые решили помочь другим в решении их проблем, а так же пользователям с поиском самых свежих и качественных инфопродуктов. За 4 с небольшим месяца мы создали этот форум на который заходят ежедневно тысячи человек и посещаемость постоянно растёт. Мы создали панель лицензирования для защиты PHP скриптов от воровства и SEO панель для мониторинга наших сайтов и выбора верной стратегии их развития. Мы надеемся что то что мы создали пригодится Вам и возможно Вы поможете нам развиваться и совершенствоваться вместе с Вами.

Статистика форума

Темы
410.885
Сообщения
469.441
Пользователи
87.879
Новый пользователь
hovixow612

Приложения форума для iOS и Android


У ркн там нет власти ;)
Приватные разговоры
Помощь Пользователи
    Вы не присоединились ни к одной комнате.