За последнюю неделю опубликовано 36 новых материалов.
Инструкция новичку Путеводитель по форуму Прокси для Telegram Показать подсказки , это бомба!

Скачать Любовь (1991) DVDRip-AVC от New-Team бесплатно через торрент

  • Поучаствуй (в качестве покупателя) в любых пяти совместных покупках (кроме завершённых и "Моментальных") и получи группу "Новичок" навсегда -> ссылка на раздел
  • Получай до 480 рублей за каждого приглашенного пользователя!
    представляем Вам очередное расширение партнерской программы, подробности описаны тут -> ссылка
  • 90% материалов доступно к скачиванию после простой регистрации!
    Если же ты хочешь скачивать материалы без требования оставлять отзывы то получи группу "Новичок", 10 способов повышения описаны тут -> ссылка
  • К сожалению количество битых ссылок растет и мы уже не можем их оперативно восстанавливать поэтому просим помощи у каждого нашего пользователя.
    С сегодняшнего дня, за каждую восстановленную ссылку мы заплатим Вам.
    Подробнее тут -> ссылка
  • Перенесем твои заслуги с другого ресурса!
    Мы понимаем как сложно прокачивать аккаунты на форумах, вроде раскачал аккаунт, а тут появляется ресурс в 100 раз круче но тоже с системой прокачки и снова качать аккаунт...
    Предлагаем вам перенести Ваши заслуги на другом подобном ресурсе к нам.
    Подробности описаны тут -> ссылка
  • Вы можете получать по 2.5% с каждой покупки и продажи на маркете! Подробности в теме Партнёрская программа
Если Вы не хотите скачивать, Вы всегда можетепосмотретьонлайн, просто нажмите кнопку ниже :

Открыть плеер

Torrent_Bot

Торрент-Бот
Бот форума
4 Окт 2016
91
163
20
bfe2f9eb2da14e8000fde2452530e90d.png
Страна: СССР
Производство: Студия Горького, Зодиак
Жанр: мелодрама
Год выпуска: 1991
Продолжительность: 01:44:56

Перевод: не требуется
Оригинальная аудиодорожка: русский
Cубтитры: нет

Режиссер: Валерий Тодоровский

В ролях: Евгений Миронов, Наталья Петрова, Дмитрий Марьянов, Татьяна Скороходова, Наталья Вилькина, Вия Артмане, Лев Дуров, Раиса Рязанова, Инна (Фаина) Слободская, Анатолий Поползухин...

Описание:
Два друга-студента на вечеринке знакомятся с девушками. У первой пары есть и роскошная квартира для встреч, и видимое взаимопонимание, которое приводит к браку. Любовь основных героев осложнена не только разницей характеров и семейных укладов, но и вынужденным отъездом девушки в Израиль…


601fa461839bd045689d85ff6a645adc.gif89bd572c72f053c4016e69298f89755a.png


Исходник: DVD9 R5
Тип релиза: DVDRip-AVC
Контейнер: MKV

Видео: [email protected] (4:3), 25 fps, H264 ~ 1536 kbps avg, 0.157 bit/pixel
Аудио: 48 kHz, Dolby AC3 5.1, 448 kbps
MediaInfo
Общее
Полное имя : Ljubov'.1991.DVDRip-AVC_[Youtracker]_by_AVP Studio.mkv
Формат : Matroska
Версия формата : Version 2
Размер файла : 1,46 Гбайт
Продолжительность : 1 ч. 44 м.
Общий поток : 1986 Кбит/сек
Дата кодирования : UTC 2013-04-11 13:05:52
Программа кодирования : mkvmerge v5.0.1 ('Es ist Sommer') built on Nov 6 2011 16:23:40
Библиотека кодирования : libebml v1.2.2 + libmatroska v1.3.0

Видео
Идентификатор : 1
Формат : AVC
Формат/Информация : Advanced Video Codec
Профиль формата : [email protected]
Параметр CABAC формата : Да
Параметр ReFrames формата : 11 кадров
Идентификатор кодека : V_MPEG4/ISO/AVC
Продолжительность : 1 ч. 44 м.
Битрейт : 1536 Кбит/сек
Ширина : 704 пикселя
Высота : 556 пикселей
Соотношение сторон : 4:3
Частота кадров : 25,000 кадров/сек
Цветовое пространство : YUV
Субдискретизация насыщенности : 4:2:0
Битовая глубина : 8 бит
Тип развёртки : Прогрессивная
Бит/(Пиксели*Кадры) : 0.157
Размер потока : 1,10 Гбайт (75%)
Библиотека кодирования : x264 core 119 r2106 07efeb4
Настройки программы : cabac=1 / ref=11 / deblock=1:-3:-2 / analyse=0x3:0x113 / me=umh / subme=9 / psy=1 / psy_rd=1.00:0.20 / mixed_ref=1 / me_range=32 / chroma_me=1 / trellis=1 / 8x8dct=1 / cqm=0 / deadzone=21,11 / fast_pskip=0 / chroma_qp_offset=-3 / threads=3 / sliced_threads=0 / nr=0 / decimate=0 / interlaced=0 / bluray_compat=0 / constrained_intra=0 / bframes=8 / b_pyramid=2 / b_adapt=2 / b_bias=0 / direct=3 / weightb=1 / open_gop=0 / weightp=2 / keyint=250 / keyint_min=25 / scenecut=40 / intra_refresh=0 / rc_lookahead=60 / rc=2pass / mbtree=1 / bitrate=1536 / ratetol=1.0 / qcomp=0.60 / qpmin=0 / qpmax=69 / qpstep=4 / cplxblur=20.0 / qblur=0.5 / ip_ratio=1.40 / aq=1:1.00
Default : Да
Forced : Нет

Аудио
Идентификатор : 2
Формат : AC-3
Формат/Информация : Audio Coding 3
Расширение режима : CM (complete main)
Идентификатор кодека : A_AC3
Продолжительность : 1 ч. 44 м.
Вид битрейта : Постоянный
Битрейт : 448 Кбит/сек
Каналы : 6 каналов
Расположение каналов : Front: L C R, Side: L R, LFE
Частота : 48,0 КГц
Битовая глубина : 16 бит
Метод сжатия : С потерями
Размер потока : 336 Мбайт (23%)
Default : Да
Forced : Нет
Скриншоты
cfa127984b637142dbbf86ee6f4aae05.jpeg01939956d27affa218ec7e4dd787e27a.jpeg8b11c189d539348a4f9446880e835b7a.jpega689034c2c46a061dea8b08bf2cdbb18.jpege68ccc9f05e20c29cfea761a22ef8781.jpeg
Награды
Приз Европейской ассоциации художественного кино,
Приз экуменистического жюри,
Приз зрителей на Международном Каннском фестивале (Франция, 1992г.);
«Приз Мира» - Московского кинофестиваля в Чикаго, США (1992г.);
Приз режиссёру «За лучшую работу с актерами» Кинофестиваля «Созвездие» в г. Смоленск.

За работу в фильме актёр Евгений Миронов награждён:

Премией за лучшую роль на Кинофестивале «Созвездие-92»;
Премией за лучшую роль на Кинофестивале «Кинотавр-92»;
«Гран-при» и специальным призом кинокритики на Международном кинофестивале «Звезды завтрашнего дня» в Женеве;
Признан критиками лучшим актером 1992 года.

За работу в фильме актриса Наталья Петрова награждена:

Призом Кинофестиваля в Монпелье (Франция) в номинации «Лучшая женская роль» (1992г.)
 

Вложения

Привет!

Мы группа людей которые решили помочь другим в решении их проблем, а так же пользователям с поиском самых свежих и качественных инфопродуктов. За 4 с небольшим месяца мы создали этот форум на который заходят ежедневно тысячи человек и посещаемость постоянно растёт. Мы создали панель лицензирования для защиты PHP скриптов от воровства и SEO панель для мониторинга наших сайтов и выбора верной стратегии их развития. Мы надеемся что то что мы создали пригодится Вам и возможно Вы поможете нам развиваться и совершенствоваться вместе с Вами.

Статистика форума

Темы
410.478
Сообщения
469.028
Пользователи
85.715
Новый пользователь
Margorita2202

Приложения форума для iOS и Android


У ркн там нет власти ;)
Приватные разговоры
Помощь Пользователи
    Вы не присоединились ни к одной комнате.