За последнюю неделю опубликовано 91 новых материалов.
Инструкция новичку Путеводитель по форуму Прокси для Telegram Показать подсказки , это бомба!

Скачать Лёгкий теннис / Softenni [S01+Спешлы] (2011) BDRip от Deadmauvlad | Без Цензуры бесплатно через торрент

  • Поучаствуй (в качестве покупателя) в любых пяти совместных покупках (кроме завершённых и "Моментальных") и получи группу "Новичок" навсегда -> ссылка на раздел
  • Получай до 480 рублей за каждого приглашенного пользователя!
    представляем Вам очередное расширение партнерской программы, подробности описаны тут -> ссылка
  • 90% материалов доступно к скачиванию после простой регистрации!
    Если же ты хочешь скачивать материалы без требования оставлять отзывы то получи группу "Новичок", 10 способов повышения описаны тут -> ссылка
  • К сожалению количество битых ссылок растет и мы уже не можем их оперативно восстанавливать поэтому просим помощи у каждого нашего пользователя.
    С сегодняшнего дня, за каждую восстановленную ссылку мы заплатим Вам.
    Подробнее тут -> ссылка
  • Перенесем твои заслуги с другого ресурса!
    Мы понимаем как сложно прокачивать аккаунты на форумах, вроде раскачал аккаунт, а тут появляется ресурс в 100 раз круче но тоже с системой прокачки и снова качать аккаунт...
    Предлагаем вам перенести Ваши заслуги на другом подобном ресурсе к нам.
    Подробности описаны тут -> ссылка
  • Вы можете получать по 2.5% с каждой покупки и продажи на маркете! Подробности в теме Партнёрская программа

Torrent_Bot

Торрент-Бот
Бот форума
4 Окт 2016
102
152
20


Русское название: Софт-теннис / Лёгкий теннис
Название на Латиницей: Softenni
Название на японском: そふてにっ
Год: 2011
Жанр: комедия, спорт, школа, этти
Автор оригинала: Адзути Рё
Снято по манге: Softenni
Режиссер: Камицубо Рёки
В ролях: Канаэ Ито, Эри Китамура, Ито Сидзука, Ягари Саюри, Акэсака Сатоми, Томацу Харука, Мацумото Синобу



Описание: Женский клуб софт-тенниса школы Сиратама звезд с неба, мягко говоря, не хватает. Главная героиня, шумная и неуклюжая Асуна, полна энтузиазма, но совершенно не умеет концентрироваться. Ее подруга Котонэ – сильная и ловкая спортсменка, мастер боевых искусств, но явно хромает в теннисной технике. Старшеклассница Титосэ, номинальный лидер клуба, и вовсе не умеет играть, спорт она выбрала лишь как средство борьбы с последствиями неуемного аппетита. Новичок Курусу талантлива, но нелюдима и не понимает командной работы, а иностранка Элизабет, похоже, вступила, чтобы учить японский и демонстрировать кое-кому весьма неплохую фигурку. И как такая компания может думать о национальном чемпионате?


- Ну и что? – резонно замечает куратор клуба Мисимаги-сэнсэй (для своих просто Миси), одолев бутылочку сакэ в компании местного завуча. - Школьные клубы все-таки существуют для развлечения и общего развития, а не ради порчи здоровья. Что-то получится – хорошо, не получится – ладно. Перед нами не эпический спокон, а простая и добрая комедия с элементами спорта и романтики. Да и какая разница, чем занимаются пятеро девчонок, лишь бы было интересно им и зрителям!


Перевод: Любительский Одноголосый Sahawk (Animedia)
Производство: Япония
Студия: Xebec
Продолжительность: 12 серий x ~00:25:00 (Сериал) + 06 x ~00:03:00 (Спешлы)

Возрастное ограничение: Запрещено для детей
Цензура: Нет (см.спойлер)


Файл
Формат: AVI
Кодек: XviD
Качество: BDRip [BDRemux 1080p] thx Den4ik
Видео 720x400 (16:9), 23.976 fps, 1605 Кбит/сек (0.245 bit/pixel)
Аудио №1: AC-3, 48,0 КГц, 2 ch, 192 Кбит/сек, CBR | | Animedia
Аудио №2: AC-3, 48,0 КГц, 2 ch, 192 /сек, CBR | | Japan (Оригинал)
Субтитры (Russian): ass, внешние | полный перевод


Список Эпизодов
01. Morning Training!
02. Blond Hair!
03. Intense!
04. Going Out!
05. Second Coming
06. Two Pair!
07. Ambush!
08. Summit!
09. For a While!
10. Freshman Reception!
11. Trip!
12. Return!
SP1.
SP2.
SP3.
SP4.
SP5.
SP6.


Папка Bonus содержит
Оригинальные Опенинг и Эндинг без титров


MediaInfo
Общее
Полное имя : [Deadmau-RAWS] Softenni.S01.BDRip.Deadmauvlad.RUS.JAP.Uncensored.Version.Ep.01.avi
Формат : AVI
Формат/Информация : Audio Video Interleave
Размер файла : 350 Мбайт
Продолжительность : 24 м. 27 с.
Общий поток : 2003 Кбит/сек
Название фильма : [Deadmau-RAWS] Softenni.S01.BDRip.RUS.Jap.Uncensored.Version.Ep.01
Режиссёр : Encoder by Deadmauvlad
Жанр : этти, спорт
Программа кодирования : VirtualDubMod 1.5.10.3 | www.virtualdub-fr.org || (build 2550/release)
Формат оригинала/Имя : Аниме
Авторское право : Encoder by Deadmauvlad
Примечание : Encoder by Deadmauvlad

Видео
Идентификатор : 0
Формат : MPEG-4 Visual
Профиль формата : Advanced Simple@L5
Настройки формата : BVOP1 / Custom Matrix
Параметр BVOP формата : 1
Параметр QPel формата : Нет
Параметр GMC формата : Без точки перехода
Параметр матрицы формата : Выборочная
Идентификатор кодека : XVID
Идентификатор кодека/Подсказка : XviD
Продолжительность : 24 м. 27 с.
Битрейт : 1605 Кбит/сек
Ширина : 720 пикселей
Высота : 400 пикселей
Соотношение сторон : 16:9
Частота кадров : 23,976 (24000/1001) кадра/сек
Цветовое пространство : YUV
Субдискретизация насыщенности : 4:2:0
Битовая глубина : 8 бит
Тип развёртки : Прогрессивная
Метод сжатия : С потерями
Бит/(Пиксели*Кадры) : 0.232
Размер потока : 281 Мбайт (80%)
Библиотека кодирования : XviD 73

Аудио #1
Идентификатор : 1
Формат : AC-3
Формат/Информация : Audio Coding 3
Коммерческое название : Dolby Digital
Идентификатор кодека : 2000
Продолжительность : 24 м. 27 с.
Вид битрейта : Постоянный
Битрейт : 192 Кбит/сек
Каналы : 2 канала
Channel layout : L R
Частота : 48,0 КГц
Частота кадров : 31,250 кадров/сек (1536 SPF)
Битовая глубина : 16 бит
Метод сжатия : С потерями
Размер потока : 33,6 Мбайт (10%)
Выравнивание : Разделение по промежуткам
Продолжительность промежутка : 42 мс. (1,00 видеокадр)
Время предзагрузки промежутка : 500 мс.

Аудио #2
Идентификатор : 2
Формат : AC-3
Формат/Информация : Audio Coding 3
Коммерческое название : Dolby Digital
Идентификатор кодека : 2000
Продолжительность : 24 м. 27 с.
Вид битрейта : Постоянный
Битрейт : 192 Кбит/сек
Каналы : 2 канала
Channel layout : L R
Частота : 48,0 КГц
Частота кадров : 31,250 кадров/сек (1536 SPF)
Битовая глубина : 16 бит
Метод сжатия : С потерями
Размер потока : 33,6 Мбайт (10%)
Выравнивание : Разделение по промежуткам
Продолжительность промежутка : 42 мс. (1,00 видеокадр)
Время предзагрузки промежутка : 500 мс.

Отсутствие Цензуры
БД релиз аниме сериала Софт-теннис представил вашему вниманию полноценную этти (Фансервисную) версию сериала а именно: наличие "тема сисек Раскрыта !". Предлагаю лицезреть отличия БД и ТВ Версии.
Скриншоты:


Обзор тут
> > https://www.sankakucomplex.com/2011/06/26/softenni-uncensored-nipple-anime/
> > https://www.sankakucomplex.com/2011/08/28/softenni-not-so-soft-any-more-2/
Скриншоты

Резервные скрины


Релиз / Автор рипа: >Deadmauvlad <

BD Версия Без Цензуры !!

 

Вложения

  • 11,3 KB Просмотры: 1
    Личеров 0
    Сидеров 0
    Файлов 39
    Объем 4,4 GB

Привет!

Мы группа людей которые решили помочь другим в решении их проблем, а так же пользователям с поиском самых свежих и качественных инфопродуктов. За 4 с небольшим месяца мы создали этот форум на который заходят ежедневно тысячи человек и посещаемость постоянно растёт. Мы создали панель лицензирования для защиты PHP скриптов от воровства и SEO панель для мониторинга наших сайтов и выбора верной стратегии их развития. Мы надеемся что то что мы создали пригодится Вам и возможно Вы поможете нам развиваться и совершенствоваться вместе с Вами.

Статистика форума

Темы
404.589
Сообщения
461.466
Пользователи
80.281
Новый пользователь
MrProUk

Приложения форума для iOS и Android


У ркн там нет власти ;)
Приватные разговоры
Помощь Пользователи
    Вы не присоединились ни к одной комнате.