За последнюю неделю опубликовано 49 новых материалов.
Инструкция новичку Путеводитель по форуму Прокси для Telegram Показать подсказки , это бомба!

Скачать Лиззи Магуайр / The Lizzie McGuire Movie (2003) WEB-DL 1080p | P | Open Matte бесплатно через торрент

  • Поучаствуй (в качестве покупателя) в любых пяти совместных покупках (кроме завершённых и "Моментальных") и получи группу "Новичок" навсегда -> ссылка на раздел
  • Получай до 480 рублей за каждого приглашенного пользователя!
    представляем Вам очередное расширение партнерской программы, подробности описаны тут -> ссылка
  • 90% материалов доступно к скачиванию после простой регистрации!
    Если же ты хочешь скачивать материалы без требования оставлять отзывы то получи группу "Новичок", 10 способов повышения описаны тут -> ссылка
  • К сожалению количество битых ссылок растет и мы уже не можем их оперативно восстанавливать поэтому просим помощи у каждого нашего пользователя.
    С сегодняшнего дня, за каждую восстановленную ссылку мы заплатим Вам.
    Подробнее тут -> ссылка
  • Перенесем твои заслуги с другого ресурса!
    Мы понимаем как сложно прокачивать аккаунты на форумах, вроде раскачал аккаунт, а тут появляется ресурс в 100 раз круче но тоже с системой прокачки и снова качать аккаунт...
    Предлагаем вам перенести Ваши заслуги на другом подобном ресурсе к нам.
    Подробности описаны тут -> ссылка
  • Вы можете получать по 2.5% с каждой покупки и продажи на маркете! Подробности в теме Партнёрская программа
Если Вы не хотите скачивать, Вы всегда можетепосмотретьонлайн, просто нажмите кнопку ниже :

Открыть плеер

Torrent_Bot

Торрент-Бот
Бот форума
4 Окт 2016
91
164
20
Информация о фильме
Название: Лиззи Магуайр
Оригинальное название: The Lizzie McGuire Movie
Год выхода: 2003
Жанр: Мелодрама, комедия, приключения, семейный, музыка
Режиссер: Джим Фолл
В ролях: Хилари Дафф, Адам Лэмберг, Халли Тодд, Роберт Кэрредин, Джейк Томас, Эшли Брилло, Клэйтон Снайдер, Алекс Борштейн, Яни Геллман, Брендан Келли

О фильме:
Тринадцатилетняя школьница Лиззи Магуайер и ее приятели Гордо, Кейт и Эсан собираются оттянуться по полной программе во время их поездки с классом в Италию. Но там случается весьма неожиданное происшествие: девочку ошибочно принимают за итальянскую поп-звезду Изабеллу, да к тому же девушка влюбляется в бывшего дружка Изабеллы Паоло. Когда родители Лизи обо всем узнают, они вместе с ее братом Мэттом срочно вылетают в Италию. Но Лиззи уже не та закомплексованная девочка-подросток, кем была раньше, она до такой степени вжилась в роль певицы, что и на самом деле стала самой настоящей звездой.

Сравнительные скриншоты: WEB-DL (1080p) и Open Matte - WEB-DL (1080p)
WEB-DL (1080p) Open Matte - WEB-DL (1080p)




Страна: США
Студия: Teen Life Productions, Walt Disney Pictures
Продолжительность: 01:30:01
Перевод: Профессиональный (многоголосый, закадровый) - ВидеоСервис, R5

Файл
Формат: MKV
Кодек: x.264
Качество: WEB-DL (1080p)
Видео: MPEG-4 AVC, 10000 Кбит/с, 1920x1080, 25.000 fps
Аудио #1: AC3, 2 ch, 192 kbps | Многоголосый закадровый - ВидеоСервис
Аудио #2: AC3, 6 ch, 448 kbps | Многоголосый закадровый - R5
Аудио #3: AC3, 6 ch, 448 kbps | оригинал
Аудио #4: AAС, 2 ch, ~ 128 Кбит/с | оригинал - Из исходника
Субтитры: Русские, английские
Чаптеры (Закладки, главы, меню): Есть

MediaInfo:
General
Unique ID : 55489196109738029974388734747127693537 (0x29BED49791E02F14004277FE62FDC0E1)
Complete name : D:DownloadsВременные файлыЛиззи Магуайр (The Lizzie McGuire Movie).2003.Open Matte.x264.WEB-DL.(1080p).mkv
Format : Matroska
Format version : Version 4 / Version 2
File size : 7.00 GiB
Duration : 1 h 30 min
Overall bit rate : 11.1 Mb/s
Encoded date : UTC 2018-08-24 18:28:44
Writing application : mkvmerge v20.0.0 ('I Am The Sun') 64-bit
Writing library : libebml v1.3.5 + libmatroska v1.4.8

Video
ID : 1
Format : AVC
Format/Info : Advanced Video Codec
Format profile : [email protected]
Format settings : CABAC / 4 Ref Frames
Format settings, CABAC : Yes
Format settings, ReFrames : 4 frames
Codec ID : V_MPEG4/ISO/AVC
Duration : 1 h 29 min
Bit rate mode : Constant
Bit rate : 10 000 kb/s
Width : 1 920 pixels
Height : 1 080 pixels
Display aspect ratio : 16:9
Frame rate mode : Constant
Frame rate : 25.000 FPS
Standard : PAL
Color space : YUV
Chroma subsampling : 4:2:0
Bit depth : 8 bits
Scan type : Progressive
Bits/(Pixel*Frame) : 0.193
Stream size : 6.23 GiB (89%)
Default : Yes
Forced : No
Color range : Limited
Color primaries : BT.709
Transfer characteristics : BT.709
Matrix coefficients : BT.709

Audio #1
ID : 2
Format : AC-3
Format/Info : Audio Coding 3
Commercial name : Dolby Digital
Codec ID : A_AC3
Duration : 1 h 29 min
Bit rate mode : Constant
Bit rate : 192 kb/s
Channel(s) : 2 channels
Channel positions : Front: L R
Sampling rate : 48.0 kHz
Frame rate : 31.250 FPS (1536 SPF)
Bit depth : 16 bits
Compression mode : Lossy
Delay relative to video : -80 ms
Stream size : 124 MiB (2%)
Title : MVO (Многоголосый - ВидеоСервис) AC-3, 192 kbps, 2ch
Language : Russian
Service kind : Complete Main
Default : Yes
Forced : No

Audio #2
ID : 3
Format : AC-3
Format/Info : Audio Coding 3
Commercial name : Dolby Digital
Codec ID : A_AC3
Duration : 1 h 30 min
Bit rate mode : Constant
Bit rate : 448 kb/s
Channel(s) : 6 channels
Channel positions : Front: L C R, Side: L R, LFE
Sampling rate : 48.0 kHz
Frame rate : 31.250 FPS (1536 SPF)
Bit depth : 16 bits
Compression mode : Lossy
Delay relative to video : -64 ms
Stream size : 288 MiB (4%)
Title : MVO - R5 (Многоголосый - Телеканал R5) AC-3, 448 kbps, 6ch
Language : Russian
Service kind : Complete Main
Default : No
Forced : No

Audio #3
ID : 4
Format : AC-3
Format/Info : Audio Coding 3
Commercial name : Dolby Digital
Codec ID : A_AC3
Duration : 1 h 29 min
Bit rate mode : Constant
Bit rate : 448 kb/s
Channel(s) : 6 channels
Channel positions : Front: L C R, Side: L R, LFE
Sampling rate : 48.0 kHz
Frame rate : 31.250 FPS (1536 SPF)
Bit depth : 16 bits
Compression mode : Lossy
Delay relative to video : -64 ms
Stream size : 288 MiB (4%)
Title : AC-3, 448 Kbps, 6ch
Language : English
Service kind : Complete Main
Default : No
Forced : No

Audio #4
ID : 5
Format : AAC
Format/Info : Advanced Audio Codec
Format profile : LC
Codec ID : A_AAC-2
Duration : 1 h 29 min
Bit rate : 125 kb/s
Channel(s) : 2 channels
Channel positions : Front: L R
Sampling rate : 48.0 kHz
Frame rate : 46.875 FPS (1024 SPF)
Compression mode : Lossy
Delay relative to video : -80 ms
Stream size : 80.7 MiB (1%)
Title : AAC, 125-209 kbps, 2ch
Language : English
Default : No
Forced : No

Text #1
ID : 6
Format : UTF-8
Codec ID : S_TEXT/UTF8
Codec ID/Info : UTF-8 Plain Text
Duration : 1 h 24 min
Bit rate : 91 b/s
Count of elements : 787
Stream size : 56.6 KiB (0%)
Title : Rus
Language : Russian
Default : Yes
Forced : No

Text #2
ID : 7
Format : UTF-8
Codec ID : S_TEXT/UTF8
Codec ID/Info : UTF-8 Plain Text
Duration : 1 h 29 min
Bit rate : 101 b/s
Count of elements : 2163
Stream size : 66.6 KiB (0%)
Language : English
Default : No
Forced : No

Menu
00:00:00.000 : en:Opening Credits/Graduation Day
00:08:19.000 : en:Rome, The Eternal City
00:14:27.000 : en:Lizzie's Wish Comes True
00:21:48.000 : en:Adventures
00:28:37.000 : en:paolo Asks For Help
00:35:04.000 : en:Shopping Spree
00:46:43.000 : en:promises
00:57:01.000 : en:"What Dreams Are Made Of"
01:03:34.000 : en:Shocking Discoveries
01:13:39.000 : en:"What Dreams Are REALLY Made Of"
01:20:57.000 : en:The After Party
01:24:06.000 : en:Capturing The Moment/End Credits
Скриншоты


Релиз от: CergMark
 

Вложения

  • 18,5 KB Просмотры: 1
    Личеров 0
    Сидеров 0
    Файлов 1
    Объем 7 GB

Привет!

Мы группа людей которые решили помочь другим в решении их проблем, а так же пользователям с поиском самых свежих и качественных инфопродуктов. За 4 с небольшим месяца мы создали этот форум на который заходят ежедневно тысячи человек и посещаемость постоянно растёт. Мы создали панель лицензирования для защиты PHP скриптов от воровства и SEO панель для мониторинга наших сайтов и выбора верной стратегии их развития. Мы надеемся что то что мы создали пригодится Вам и возможно Вы поможете нам развиваться и совершенствоваться вместе с Вами.

Статистика форума

Темы
410.585
Сообщения
469.153
Пользователи
86.312
Новый пользователь
Gremlin_SEM

Приложения форума для iOS и Android


У ркн там нет власти ;)
Приватные разговоры
Помощь Пользователи
    Вы не присоединились ни к одной комнате.