За последнюю неделю опубликовано 34 новых материалов.
Инструкция новичку Путеводитель по форуму Прокси для Telegram Показать подсказки , это бомба!

Скачать Лев Яшин. Вратарь моей мечты (2019) HDRip-AVC | Лицензия бесплатно через торрент

  • Поучаствуй (в качестве покупателя) в любых пяти совместных покупках (кроме завершённых и "Моментальных") и получи группу "Новичок" навсегда -> ссылка на раздел
  • Получай до 480 рублей за каждого приглашенного пользователя!
    представляем Вам очередное расширение партнерской программы, подробности описаны тут -> ссылка
  • 90% материалов доступно к скачиванию после простой регистрации!
    Если же ты хочешь скачивать материалы без требования оставлять отзывы то получи группу "Новичок", 10 способов повышения описаны тут -> ссылка
  • К сожалению количество битых ссылок растет и мы уже не можем их оперативно восстанавливать поэтому просим помощи у каждого нашего пользователя.
    С сегодняшнего дня, за каждую восстановленную ссылку мы заплатим Вам.
    Подробнее тут -> ссылка
  • Перенесем твои заслуги с другого ресурса!
    Мы понимаем как сложно прокачивать аккаунты на форумах, вроде раскачал аккаунт, а тут появляется ресурс в 100 раз круче но тоже с системой прокачки и снова качать аккаунт...
    Предлагаем вам перенести Ваши заслуги на другом подобном ресурсе к нам.
    Подробности описаны тут -> ссылка
  • Вы можете получать по 2.5% с каждой покупки и продажи на маркете! Подробности в теме Партнёрская программа
Если Вы не хотите скачивать, Вы всегда можетепосмотретьонлайн, просто нажмите кнопку ниже :

Открыть плеер

Torrent_Bot

Торрент-Бот
Бот форума
4 Окт 2016
93
160
20


«На пьедестале народной любви»

Информация о фильме
Название: Лев Яшин. Вратарь моей мечты
Год выхода: 2019
Жанр: Биография, спорт, драма
Режиссер: Василий Чигинский
В ролях: Александр Фокин, Юлия Хлынина, Алексей Гуськов, Алексей Кравченко, Евгений Дятлов, Виталий Хаев, Михаил Елисеев, Ян Цапник, Александр Самойленко, Владимир Андреев

О фильме:
Чёрный паук, Чёрная пантера и даже Чёрный осьминог — такими прозвищами награждали Льва Яшина за гибкость, молниеносное перемещение и гениальное видение поля. Он, неизменно в черном свитере с буквой «Д», был полноправным хозяином в своей штрафной. После поражения на Чемпионате мира в Чили ему придется уйти, чтобы позже с триумфом вернуться и снова стать лучшим не только в стране, но и во всем мире — единственным вратарём за всю историю футбола, получившим Золотой мяч. Лучшим, по мнению FIFA, вратарем ХХ века.



Страна: Россия
Студия: Kremlin Films
Продолжительность: 01:55:55
Перевод: Не требуется | Лицензия Blu-ray RUS

Файл
Качество: HDRip-AVC
Исходник:LevYashinVratarMoejMechtyBDRip1080p.mkv
Формат: MKV
Кодек: MPEG-4 AVC
Видео: 1024x428 (2,40:1), 24 fps, MPEG-4 AVC ~ 2241 Кbps avg, 0.213 bit/pixel
Аудио: AC3, 48 kHz, 6 ch, ~448.00 kbps avg | русский | Blu-ray RUS
Субтитры: Отсутствуют

Инфо-файл
Общее
Уникальный идентификатор : 206014792407580573923577987052977634852 (0x9AFD017A0A7F558EE5D34B20FF2DBE24)
Полное имя : Lev.Yashin.Vratar.Moej.Mechty.2019.HDRip.2.18Gb.x264.mkv
Формат : Matroska
Версия формата : Version 4
Размер файла : 2,18 Гбайт
Продолжительность : 1 ч. 55 м.
Общий поток : 2690 Кбит/сек
Название фильма : Лев Яшин. Вратарь моей мечты (2019)
Дата кодирования : UTC 2020-05-12 23:20:04
Программа кодирования : mkvmerge v46.0.0 ('No Deeper Escape') 64-bit
Библиотека кодирования : libebml v1.3.10 + libmatroska v1.5.2
Обложка : Yes
Attachments : cover.jpg

Видео
Идентификатор : 1
Формат : AVC
Формат/Информация : Advanced Video Codec
Профиль формата : [email protected]
Настройки формата : CABAC / 10 Ref Frames
Параметр CABAC формата : Да
Параметр RefFrames формата : 10 кадров
Идентификатор кодека : V_MPEG4/ISO/AVC
Продолжительность : 1 ч. 55 м.
Битрейт : 2241 Кбит/сек
Ширина : 1024 пикселя
Высота : 428 пикселей
Соотношение сторон : 2,40:1
Режим частоты кадров : Постоянный
Частота кадров : 24,000 кадра/сек
Цветовое пространство : YUV
Субдискретизация насыщенности : 4:2:0
Битовая глубина : 8 бит
Тип развёртки : Прогрессивная
Бит/(Пиксели*Кадры) : 0.213
Размер потока : 1,81 Гбайт (83%)
Заголовок : #stillet
Библиотека кодирования : x264 core 152 r2851bm ba24899
Настройки программы : cabac=1 / ref=10 / deblock=1:-3:-3 / analyse=0x3:0x113 / me=umh / subme=11 / psy=1 / psy_rd=1.00:0.15 / mixed_ref=1 / me_range=32 / chroma_me=1 / trellis=2 / 8x8dct=1 / cqm=0 / deadzone=21,11 / fast_pskip=0 / chroma_qp_offset=-3 / threads=8 / lookahead_threads=3 / sliced_threads=0 / nr=0 / decimate=0 / interlaced=0 / bluray_compat=0 / constrained_intra=0 / bframes=10 / b_pyramid=2 / b_adapt=2 / b_bias=0 / direct=3 / weightb=1 / open_gop=0 / weightp=2 / keyint=240 / keyint_min=24 / scenecut=40 / intra_refresh=0 / rc=2pass / mbtree=0 / bitrate=2241 / ratetol=1.0 / qcomp=0.60 / qpmin=0 / qpmax=69 / qpstep=4 / cplxblur=20.0 / qblur=0.5 / ip_ratio=1.40 / pb_ratio=1.30 / aq=1:1.00
Язык : English
Default : Да
Forced : Нет

Аудио
Идентификатор : 2
Формат : AC-3
Формат/Информация : Audio Coding 3
Коммерческое название : Dolby Digital
Идентификатор кодека : A_AC3
Продолжительность : 1 ч. 55 м.
Вид битрейта : Постоянный
Битрейт : 448 Кбит/сек
Каналы : 6 каналов
ChannelLayout : L R C LFE Ls Rs
Частота : 48,0 КГц
Частота кадров : 31,250 кадров/сек (1536 SPF)
Метод сжатия : С потерями
Размер потока : 371 Мбайт (17%)
Заголовок : Blu-ray RUS
Язык : Russian
Default : Да
Forced : Да

Меню
00:00:00.000 : en:Chapter 1
00:00:18.708 : en:Chapter 2
00:10:07.083 : en:Chapter 3
00:20:28.791 : en:Chapter 4
00:31:17.291 : en:Chapter 5
00:43:34.500 : en:Chapter 6
00:55:37.166 : en:Chapter 7
01:07:54.625 : en:Chapter 8
01:18:39.541 : en:Chapter 9
01:29:51.291 : en:Chapter 10
01:43:21.083 : en:Chapter 11
Скриншоты
 

Вложения

  • 11,8 KB Просмотры: 0
    Личеров 0
    Сидеров 0
    Файлов 1
    Объем 2,2 GB

Привет!

Мы группа людей которые решили помочь другим в решении их проблем, а так же пользователям с поиском самых свежих и качественных инфопродуктов. За 4 с небольшим месяца мы создали этот форум на который заходят ежедневно тысячи человек и посещаемость постоянно растёт. Мы создали панель лицензирования для защиты PHP скриптов от воровства и SEO панель для мониторинга наших сайтов и выбора верной стратегии их развития. Мы надеемся что то что мы создали пригодится Вам и возможно Вы поможете нам развиваться и совершенствоваться вместе с Вами.

Статистика форума

Темы
406.601
Сообщения
464.985
Пользователи
84.249
Новый пользователь
52963

Приложения форума для iOS и Android


У ркн там нет власти ;)
Приватные разговоры
Помощь Пользователи
    Вы не присоединились ни к одной комнате.